&title=Livmetarryr
&artist=a_hisa
&first=-0.02
&des=Kawakaze
&lv_5=13+
&inote_5=(135)
{4},
(270)
{2},,
(135)
{4}3h[4:1]/6,5h[4:1],{12}4-2[8:1],,6,
{4}6,{12}7-4[8:1],,1,
1,,,
2-8[8:1],,5,
5,,,
{4}6h[4:1],5h[4:1],{12}7-1[8:1],,4,
{4}4,{12}2-5[8:1],,8,
8,,,
7,6,5,
4,3,2,
{4}1b-5[8:1]/8,1-3[12:1]/6-8[12:1],6/1-5[8:1],{12}4/1,,2,
{4}2-8[12:1],2-4[12:1]/5,{12}2/7h[12:3],,5,5-2[8:1],,8,
{4}8-5[8:1]*-3[8:1],8,{12}4h[12:2],,5,
62,,1,
{12}7,8,6,
2,1,3,
7,5,6,
1,2,3,
{4}8b-6[12:1]/4,8-4[8:1]/3-1[8:1],8/3V57[12:2],{12}1,,2,
{4}2-4[12:1],2-8[12:1]/7,{12}2/5,,6,6-8[12:1],,1,
{4}1-5[8:1]*-3[8:1],1,{12}4h[12:2],,5,
37,,2,
{12}7,8,6,
2,1,3,
4b/8b,,,,,,
(101.25)
{8}7h[8:2],5<8[4:1],4,3h[8:2],,,
2h[8:2],1>4[4:1],8,7h[8:2],,,
6h[8:2],4,3,2h[8:2],4,5,
6,7^4[4:1],8,1,2h[16:3],,
42,5>1[4:1],6,7h[16:5]/5,,,
68,7/1<5[4:1],28,3h[16:5]/1,,,
24,1h[8:1],8,75,8h[8:1],1,
24,1>4[4:1]/8<5[4:1],27,18,,,
{16}4,5,3,6,5,7,
3,4,2,2,4,3,
7,5,6,1,4,2,
8,5,7,4,5,3,
4,4,2,2,8,8,
5,5,6,6,4,5,
3,4,2,7,8,6,
2,1,3,6,5,7,
{8}8-5[12:1]/4-1[12:1],26,{16}48,,26,48,{8},,
{8}3-8[12:1]/7-4[12:1],15,{16}37,,15,37,{8},,
{8}8-3[12:1]/4-7[12:1],26,{16}48,,48,26,{8},,
{8}1-6[12:1]/5-2[12:1],37,{16}15,,15,37,{8},,
(135)
{4}2-5[8:1]/6,{12}8-4[8:1],,1,{4}1,2-5[8:1]/4-8[8:1],
{4}42,{12}7-4[8:1],,1,{4}7,{12}2-5[8:1],,8,
{4}2,{12}7-3[8:1],,1,{4}7,{12}2-6[8:1],,8,
{4}8-5[8:1],{12}4-7[8:1],,1,{4}1-5[8:1]*-3[8:1],1,
{4}7-3[8:1]/4,{12}2-8[12:1],,4,{4}4,2-4[8:1]/5-1[8:1],
{4}2V86[6:1],{12}4,,3,{4}5,{12}7-3[8:1],,1,
{4}7,{12}2-6[8:1],,8,{4}2,{12}7v4[8:1],,1,
{12}7,2,2,5,3,3,4b-8[8:1]/7b-5[8:1],,,,,,
{12}2,4,3,7,5,6,
2,1,3,3,5,4,
7,5,6,8,6,1,
4,2,3,3,1,4,
8,5,7,7,1,5,
2,4,3,3,8,4,
7,5,6,6,1,8,
2,4,3,3,8,1,
{12}25,{24}3,4,3,,{12}1,8,2,7,8,6,2,4,3,
{12}74,{24}6,5,6,,{12}8,1,7,2,1,3,7,5,6,
{12}25,{24}3,4,3,,{12}1,8,8,47,{24}6,5,6,,{12}8,2,2,
{12}15,{24}2,4,2,,{12}1,7,7,48,{24}7,5,7,,{12}8,4,26,
(101.25)
{8}1V35[8:3],,,5V71[8:3],,,1V37[8:3],,,7V51[8:3],,,1V36[8:3],,,6V41[8:3],,,7,6,5,4v1[12:1]/8-5[12:1],26,48,
{8}2,{16}6^3[8:1],6,{8}3^8[8:1],8V64[6:1],1,3,
{8}3,{16}2^5[8:1],2,{8}5<8[8:1],8V24[6:1],,
{32},,6,7,8-4[8:1],,{16},,1,1,,
{8}3-8[12:1],7-2[12:1],3-6[12:1],7b-4[12:1],3-8[12:1],7-2[12:1],3b<8[64:7],7,3,
(135)
{32}1b,2,3,4,5,6,7,8,
1,2,3,4,5,6,7,8,
1,2,3,4,5,6,7,8,
1,2,3,4,5,6,7,8,
(101.25)
{8}1b-4[12:1]*-6[12:1]/5,5w1[12:1]/1,1,,,,
(135)
{12}1-7[12:1]/6,,,1-3[12:1]/4-8[8:1],,,1-6[8:1]/4,,,14,,2,5-1[8:1],
,,56,,8,72,,,6h[12:2],,1-3[12:1],4-8[8:1],
,1,4,,5-1[8:1],7-4[8:1],,5,7,,2,2-6[8:1]/4-8[8:1],
,,2/4w8[8:1],,,4b,,,1,2,3,
{12}8-6[12:1]/4,,,8-4[8:1]/5-2[12:1],,,5-7[12:1]/8,,,1-5[8:1],,3,1-3[12:1],
,,1/7-5[12:1],,4,7-3[8:1],,2-5[8:1],7-1[12:1],,2,7,,,4h[12:2],,8,7-3[8:1]/5-1[8:1],
,,5w1[8:1]/7,,,5b,,,
18,27,36,4-1[12:1]/5-8[12:1],,,,,,
{6}1-5[8:1],{12}8,1>6[4:1],7,,{6}6V42[6:1],7,7,
{6}8-4[8:1],{12}1,8<3[4:1],2,,{6}3V57[6:1],2,2,
{6}4-8[8:1],{12}5,4>7[4:1],6,,{6}7V13[6:1],6,6,
{6}54,18,26,4>1[8:1]/8<5[8:1],,,
{6}1-5[8:1],{12}8,1,7,,{6}4V26[6:1],{12}5,4,7,,
{6}8-4[8:1],{12}1,8,2,,{6}5V73[6:1],{12}4,5,2,,
{6}1-6[8:1],{12}2,1,3,,{6}5V38[6:1],{12}6,5,7,,
{6}16,38,42,5-2[8:1]/7-4[8:1],,,
{4}1-6[8:1]/5,1-3[8:1]/4-8[8:1],4-6[12:1]/1,1-5[8:1]/4-2[8:1],
1-7[12:1]/4,1/6-2[8:1],3-5[12:1]/6,8-4[8:1]/3,
{4}3-1[12:1]/8-6[12:1],8-4[8:1]/3,8-6[8:1]/5-1[8:1],85,
{4}2-5[8:1]/6-1[8:1],26,4-1[8:1]/8-5[8:1],48,
{4}8-3[8:1]/4,8-6[8:1]/5-1[8:1],5-3[8:1]/8,8-4[8:1]/5-7[8:1],
8-2[12:1]/5,3-7[8:1]/8-5[8:1],8>7[64:13],8/5h[8:4],
{32}1b,2,3,4,,6,7,8,
1,2,3,4,5,6,7,8,
1b,2,3,4,5,6,7,8,
1,2,3,4,5,6,7,8,
(101.25){8}1b/5,1-5[16:1]*-5[16:1]/5,1/5w1[16:1],1V35[12:1]*V75[12:1],
