&title=Rumble Storm
&artist=古代佑三
&first=0
&des=六苯乙烷
&lv_4=11
&lv_5=13
&lv_6=14
&inote_4=
(116){1},,
{8}7/2,2/7,2/7,2/7,7/2,{16}1,8,1h[8:1],,,,
{16}8,,1,,7/2,,,8,,,1,,2/7,,,,
{16}8,,1,,7/2,,,8,,1,8,,2h[8:1]/7h[8:1],,,,
{16}8,,1,,7/2,,,8,,,1h[16:6],,,,,,
{16}8,,1,,7/2,,,8,,1,8,,2/7,,2/7,,
{1}8<2[4:3],
{16},,,,,,1,2,,1,2,,3h[8:1]/8h[8:1],,,,
{16}3,,3,,4/2,,,,6,,6,,7/5,,,,
{16}6/3,5,,5,,,3/6,4,,4,,,6b/3b,,6b/3b,,
{16}6,,5,,5/6,,,4,,,3,,4/3,,,,
{16}3,,4,,3/4,,,5,,,6,,6/5,,,,
{16},,7,8,7,8,7,8,,2,1,2,1,2,1,2,
{16}8,1,8,,1,,,2/7,,7/2,,,7b/2b,,,,
{16}3,,4,,4/3,,,5,,,6,,5/6,,,,
{16}6,,5,,6/5,,,4,,,3,,3/4,,,,
{16},2,1,2,1,2,1,2,8,1,8,,,7,8,7,
{16},2/7,,,2/7,,,7h[16:3]/2h[16:3],,,,,2b/7b,,,,
{16}6h[4:1],,8,,8,,,,3h[16:3],,,1,,,,,
{16}7,,8,,8/7,,,2,,1,2,,2/1,,,,
{16}7h[4:1],,5,,5,,,,2h[16:3],,,4,,,,,
{16}6,,5,,5/6,,,3,,4,3,,3/4,,,,
{2}5^8[4:1],{16},,1,1,6,,6,,
{2}5^8[4:1],{16},1,1,,6,,6,,
{8}4h[4:1],,,8,6,3h[4:1],,,
{16}5/4,,5/4,,5/4,,,5/4,,,3h[16:1]/6h[16:1],,5b/4b,,,,
{2}4^1[4:1],{16},,8,8,3,,3,,
{2}4^1[4:1],{16},8,8,,3,,3,,
{8}5h[4:1],,,1,3,6h[4:1],,,
{16}4/5,3/6,,4/5,,6/3,4/5,,4/5,,3/6,,4b/5b,,,,
{16}8/7,,1,,8/7,1,,,8/1,,,1/8,,,8/1,,
{16}8/7,,6,,8/7,6,,6,5h[8:1]/4h[8:1],,,,3b,,,,
{16}4/5,,3,,4/5,3,,,4/3,,,3/4,,,4/3,,
{16}4/5,,6,,4/5,6,,6,8-3[8:1],,,,,,,,
{16}1/2,,8,,1/2,8,,,1/8,,,8/1,,,1/8,,
{16}1/2,,3,,1/2,3,,3,4h[8:1]/5h[8:1],,,,6b,,,,
{16}5/4,,6,,5/4,,6,6,,,5,,,,4,,
{16},,3/6,,,3/6,,,3/6,,,,3b/6b,,,,
{16}6,,6,,7/5,,,6,6,,6,,7/5,,,,
{16}6,,6,,7/5,,,6,6,,,,7,7,7,7,
{16}3,,3,,2/4,,,3,3,,3,,2/4,,,,
{16}3,,3,3,,3,,4/2,,,3,,4b/2b,,,,
{2}1h[16:6]/7h[16:7],{16},1,8,,1,,8,,
{2}1h[16:7]/7h[16:6],{16},8,1,,,1,,,
{2}8h[16:6]/2h[16:7],{16},8,1,,8,,1,,
{2}8h[16:7]/2h[16:6],{16},8,8,,,1,,,
{4}2^5[8:1],{16},,,7,,8,7,,8h[8:1]/7h[8:1],,,,
{4}2^5[8:1],{16},,,7,,8,7,,8h[8:1]/7h[8:1],,,,
{4}2^5[8:1],{16},,,7,,8,7,,8h[8:1]/7h[8:1],,,,
{16}7/2,1,,8,1b,,7/2,1,,8,1b,,2/7,,1,8,,
{1},
{1},
{1},
{1},
{1},
E
&inote_5=(116)
{1},
{4}1,2,{16},8b,8b,8b,8b,,8b,,
{8}1/2-5[16:1],7-4[16:1]/8,2-7[16:1],7-2[16:1],2,{16}8-4[16:1],8,{8}8,8,
{8}56,56,47,{16}1,28,3w7[16:1]/7,46,5,,3,,,,
{8}34,34,25,{16},8,,2,1/2-5[16:1],,13,,2,,
{8}7,78,16,{16}8,1qq6[16:3]/7,2q5[8:1]/6,35,4,,,,,,
{8}12,12,38,{16}8,2,7-4[8:1],3,4-7[8:1],,7,,,,
{16}2>5[16:1],,1,8,2/7,,7,7,8-5[16:1],8,7-3[16:1],,8,,7,,
{16}1-5[16:1],,2,8,1,,7,1b/6b,,12,3b/8b,,2h[4096:1],,7h[5096:1],,
{16}1>4[16:1]/2,,78,,1,6<1[16:1],,5,6w2[16:1],,5,,6,,,,
{16}2-6[16:1],1,4,1,2,,7-3[16:1],8,5,8,7,,2b/7b,,2b/7b,,
{16}2,{32},1,3,,1,,2,,8,,1,,7,,,,,8,,6,,,{16}18,18,,2,
{32}5,,,1,8,,,7,,,{16}1-5[16:1],5,2,,1,7-3[16:1]*-4[16:1],7,8,,7,,
{16},,8,2-7[16:1],7,1,6,2,,5,1,6,2,7,3,8,
{16}4w8[16:1],3,2,,4,,,5,,4,,,45,,47,36,
{8}2-7[8:1]/5,1,2/6-4[8:1],5,6/3>8[8:1],2,3/4<7[8:1],5,4/1-4[8:1],2,1/5<8[8:1],6,5/2V46[8:1]*V48[8:1],3,2,,
{16},1,8,2,7,3,6V82[8:1],4,5,3,6,,,4V68[16:1]*V28[16:1],4,4,
{16},4,,,3h[8:1]/5h[8:1],,,6h[16:3]/2h[16:3],,,,,36,27,18,,
{8}1pp4[2:1],1,{48}8v5[16:1]/1,7,6,5,,,{8},8,{16},{48}6,7,8,{4},
{16}7-4[16:1]/8-3[16:1],,78,,78,,2,5,1-6[16:1],6-1[16:1],78,,1,,,,
{8}8qq5[2:1],1,{48}1v4[16:1]/8,2,3,4,,,{8},1,{16},{48}3,2,1,{4},
{16}1-6[16:1]/2-5[16:1],,12,,12,,7,4,8-3[16:1],3-8[16:1],12,,8,,,,
{16}1>3[16:1],,1<3[8:3],,1,,1,,,,2-7[16:1],2,2,,2,,
{16}5<7[16:1],,5>7[8:3],,5,,5,,,6,6-3[16:1],,6,,6,,
{16}4>2[16:1],,4<2[8:3],,4,,4,,3-6[16:1],3,,,3,,,,
{16}8w4[16:1]/4,,26,,8,,,15,,,2-4[16:1]/7-5[16:1],,36,,27,,
{16}1>5[8:1]/8,,5<1[8:1]/6,,1,,,,,,1,8,8,,8,,
{16}8<4[8:1]/1,,4>8[8:1]/3,,8,,,,,2,1,,1,,1,,
{16}1-5[16:1]/8,,56,,1,,7,,8-4[16:1]/1,,34,,8,,2,,
{16}8,1<6[16:1],,3,,1,2>4[16:1],,5w1[16:1],,2,,5,,,,
{8}7/5-1[16:1],6,45,,{48}58,7,6,5,,,,,,58,7,6,5,,,,,,58,7,6,5,,,
{8}2-5[16:1]/8,3,2/8<5[16:1],7,8/4w8[16:1],3,4,,
{8}2/4-8[16:1],3,45,,{48}14,2,3,4,,,,,,14,2,3,4,,,,,,14,2,3,4,,,
{8}5-1[16:1]/4,6,5/3-8[16:1],2,3/6w2[16:1],7,6,,
{8}3h[8:1],1h[8:1],7,,{48}3/7h[16:1],4,5,6,,,,,,6/2h[16:1],5,4,3,,,,,,3/7h[16:1],4,5,6,,,
{8}1-5[16:1]/5-1[16:1],48,15,,{32}8-4[16:1]/4-8[16:1],37,26,15,{8},48,,
{16}2-5[16:1]/5,,36,,25,,1,5,3w7[16:1],7,1,,3,,,,
{16}1,,6b/7b,,,4b/5b,,,2b/3b,,,,{32}1,2,3,4,5,6,7,8,
{16}1w5[16:1],,1,,1,,,2,8w4[16:1],,8,,8,,,,
{16}26,,15,,4w8[16:1]/8,,,5,4,,,,1b/8b,1b/8b,1b/8b,1b/8b,
{16}1-4[16:1]/8h[4096:1],,1/7h[4096:1],,1/6h[4096:1],,,1,7-4[16:1]/8h[4096:1],,1h[4096:1]/7,,2h[4096:1]/7,,,,
{16}12,,2,2w6[16:1],,2,,2,,,48,,15,48,37,26,
{32}1w5[16:1]/5,8,7,6,5,4,3,2,{4}1,{32}4w8[16:1],3,2,1,8,7,6,5,{4}4,
{32}8p3[16:1]*q5[16:1],7h[64:1],6h[64:1],5h[64:1],4h[64:1],3h[64:1],2h[64:1],1h[64:1],{4}8b,
{32}5-2[16:1]*-8[16:1],4h[64:1],3h[64:1],2h[64:1],1h[64:1],8h[64:1],7h[64:1],6h[64:1],{4}5b,
{32}6h[4:1]/1<7[16:1],2,3,4,5,4,3,2,{16}1,,{32},{16}12,12,{32},{16}8,1,,23,,12,,
{32}3h[4:1]/8>2[16:1],7,6,5,4,5,6,7,{16}8,,,1b/7b,,,7b/5b,,,5b/3b,,,
{32}2,3,4,5,1,2,3-6[16:1],4,8,1,2,3,4,,{16}3,,2,2,,5,3,6,2,
{32}7,6,5,4,8,7,6-3[16:1],5,1,8,7,6,5,,{16}6,,7,7,,4,5,3,6,
{32}2,3,4,5,1,2,3<6[16:1],4,8,1,2,3,4,,{16}3,,1,1,,2,2,2,2,
{16}2>5[16:1],5,3,1,2,,7<4[16:1],4,6,8,7,,1b/8b,1b/8b,1b/8b,,
&inote_6=(116)
{1},
{4}1,2,{16},8b,8b,8b,8b,,8b,,
{8}1/2x-5[16:1],7x-4[16:1]/8,2x-7[16:1],x7-2[16:1],2,{16}8-4[16:1],8,{8}8,8,
{8}56,56,47,{16}1,28,3w7[16:1]/7,46,5,,3x,,,,
{8}34,34,25,{16},8,,2,1/2-5[16:1],,13,,2,,
{8}7,78,16,{16}8,1qq6[16:3]/7,2q5[8:1]/6,35,4,,,,,,
{8}1x/2x,12,38,{16}8,2,7-4[8:1],3,4-7[8:1],,7,,Cf,,
{16}2x>5[16:1],,1,8,2/7,,7,7,8-5[16:1],8,7-3[16:1],,8,,7,,
{16}1-5[16:1],,2,8,1,,7,1b/6b,,12,3b/8b,,2h,,7h,,
{16}1x>4[16:1]/2,,78,,1,6<1[16:1],,5,6w2[16:1],,5,,{64}6,B6,C,B1/B2/B3,{16},,,
{16}2-6[16:1],1,4,1,2x,,7-3[16:1],8,5,8,7x,,2b/4b,,2b/4b,,
{16}2,{24},1,3,{32}1,,2,,8,,1,,7,,,,,8,,6,,,{16}18,18,,2,
{32}5,,,1,8,,,7,,,{16}1-5[16:1],5,2,,1,7-3[16:1]*-4[16:1],7,8,,{64}7,B7,Cf,B3,,,{32},
{16},,8,2-7[16:1],7,1,6,2,,5,1,6,2,7,3,8,
{16}4w8[16:1],3,2,,{64}4,B4,C,B1/B7/B8,{16},,5,,4,,,45,,4x/7x,3x/6x,
{8}2x-7[8:1]/5,1,2/6-4[8:1],5,6/3>8[8:1],2,3/4<7[8:1],5,4/1-4[8:1],2,1/5<8[8:1],6,5/2V46[8:1]*V48[8:1],3,{32}2,,,,Cf,,,,
{16},1,8,2,7,3,6V82[8:1],4,5,3,6,,,4V68[16:1]*V28[16:1],4,4,
{16},4,,,3h[8:1]/5h[8:1],,,6h[16:3]/2h[16:3],,,,,36,27,18,,
{8}1pp4[2:1],1,{48}8xv5[16:1]/1,7,6,5,,,{8},8,{16},{48}6x,7,8,{4},
{16}7-4[16:1]/8-3[16:1],,78,,78,,2,5,1-6[16:1],6-1[16:1],78,,1,,,,
{8}8qq5[2:1],1,{48}1xv4[16:1]/8,2,3,4,,,{8},1,{16},{48}3x,2,1,{4},
{16}1-6[16:1]/2-5[16:1],,12,,12,,7,4,8-3[16:1],3-8[16:1],12,,8,,,,
{16}1x>3[16:1],,1x<3[8:3],,1,,1,,,,2-7[16:1],2,2,,2,,
{16}5x<7[16:1],,5x>7[8:3],,5,,5,,,6,6-3[16:1],,6,,6,,
{16}4x>2[16:1],,4x<2[8:3],,4,,4,,3-6[16:1],3,,,3,,,,
{16}8w4[16:1]/4,,26,,8,,,15,,,2-4[16:1]/7-5[16:1],,36,,27,,
{64}1x>5[8:1],E1,B8,B7,{16}E7,{64}5x<1[8:1],E5,B4,B3,{16}E3,1,,,,,,1,8,8,,8,,
{64}8<4[8:1],E1,B1,B2,{16}E3,{64}4>8[8:1],E5,B5,B6,{16}E7,8,,,,,2,1,,1,,1,,
{64}1-5[16:1]/8,E2,E3,E4,{16},6,,1,,7,,{64}8-4[16:1]/1,E8,E7,E6,{16},3,,8,,2,,
{16}8,1<6[16:1],,3,,1,2>4[16:1],,5w1[16:1],,2,,{64}5,B5,Cf,B1/B2/B8,{16},,,
{8}7/5-1[16:1],6,45,,{48}5x/8,7,6,5,,,,,,5x/8,7,6,5,,,,,,5x/8,7,6,5,,,
{8}2-5[16:1]/8,3,2/8<5[16:1],7,8/4w8[16:1],3,4,,
{8}2/4-8[16:1],3,45,,{48}1/4x,2,3,4,,,,,,1/4x,2,3,4,,,,,,1/4x,2,3,4,,,
{8}5-1[16:1]/4,6,5/3-8[16:1],2,3/6w2[16:1],7,6,,
{8}3h[8:1],1h[8:1],7,,{48}3x/7h[16:1],4,5,6,,,,,,6x/2h[16:1],5,4,3,,,,,,3x/7h[16:1],4,5,6,,,
{8}1-5[16:1]/5-1[16:1],48,15,,{32}8-4[16:1]/4-8[16:1],37,26,15,{8},{32}4x/8x,Cf,{16},,,
{16}2-5[16:1]/5,,36,,25,,1,5,3w7[16:1],7,1,,3,,,,
{16}1,,6b/7b,,,4b/5b,,,2b/3b,,,,{32}1,2,3,4,5,6,7,8,
{16}1w5[16:1],,1,,1x,,,2,8w4[16:1],,8,,8x,,,,
{16}26,,15,,4w8[16:1]/8,,,5,4x,,,,1b/8b,1b/8b,1b/8b,1b/8b,
{16}1-4[16:1]/8x,,1/7x,,1/6x,,,1,7-4[16:1]/8x,,1x/7,,2x/7,,,,
{16}12,,2,2w6[16:1],,2,,2,,,48,,15,48,37,26,
{32}1w5[16:1]/5,8,7,6,5,4,3,2,{4}1x,{32}4w8[16:1],3,2,1,8,7,6,5,{4}4x,
{32}8p3[16:1]*q5[16:1],7h[64:1],6h[64:1],5h[64:1],4h[64:1],3h[64:1],2h[64:1],1h[64:1],{4}8b,
{32}5-2[16:1]*-8[16:1],4h[64:1],3h[64:1],2h[64:1],1h[64:1],8h[64:1],7h[64:1],6h[64:1],{4}5b,
{32}6h[4:1]/1x<7[16:1],2,3,4,5x,4,3,2,{16}1x,,B6/B5,B3/E3,,8,1,,23,,12,,
{32}3h[4:1]/8x>2[16:1],7,6,5,4x,5,6,7,{16}8x,,,1b/7b,,,7b/5b,,,5b/3b,,,
{32}2,3,4,5,1,2,3-6[16:1],4,8,1,2,3,4,,{16}3x,,2,2,,5,3,6,2,
{32}7,6,5,4,8,7,6-3[16:1],5,1,8,7,6,5,,{16}6x,,7,7,,4,5,3,6,
{32}2,3,4,5,1,2,3<6[16:1],4,8,1,2,3,4,,{16}3x,,1,1,,2,2,2,2,
{16}2>5[16:1],5,3,1,2,,7<4[16:1],4,6,8,7,,1b/8b,1b/8b,1b/8b,,
