&title=影色舞
&artist=MyGO!!!!!
&first=0
&des=ArcUs
&lv_5=12+
&inote_5=(166)
{4},,,,
{8}3,4,3,25,,3,4,3,
52,,3,4,3/5-1[8:1],6,7h[4:1],,
2,1,2,38,,2,1,2,
{16}83,,5,4,6,,7/5-1[8:1],,,,8,,8,,,,
{8}
27,1,36,7h[8:1],,45,6,17,
8h[8:1]/2h[8:1],,3/4>1[8:1],2,4/7-3[8:1],6,37,,
25,3,16,5h[8:1],,16,8-3[8:1],7,
7-4[8:1]/8,,78,,15,2,34,,
27,8,36,2h[8:1],,45,3,28,
1h[8:1]/7h[8:1],,5<8[8:1]/6,7,2-6[8:1]/5,1,26,,
{16}47,,3,6,3,6,4,7,4,7,1,8,1pp4[2:1],,,,
{8}18,7<4[8:1],,7,,,35,,
{8}4-2[8:1],,6-4[8:1],,1,1,25,,
5-7[8:1],,3-5[8:1],,8,8,47,,
1-6[8:1]/8,,5,,4/7-3[8:1],,2,,
{16}5,,2,4,3,,6,,75,,4h[4:1],,5>3[8:1],,5,,
{8}2,,24,5h[4:1],4<6[8:1],4,7,,
2,6,4-8[8:1],5,24,,3h[4:1]/7,,
5,4/6h[8:2],,4,35,2,1h[4:1]/4-8[8:1],,
{16}4,,1,2,3,4,5h[8:3],,,,8b,,8b,,,,
{8}3-8[8:1],,4-8[8:1],,1^4[8:1],1,7h[4:1],,
5-1[8:1],,6-1[8:1],,2-6[8:1],2,8h[4:1],,
4h[8:1],,2h[8:1]/5h[8:1],,4h[8:1]/7h[8:1],,8,1,
{16}26,,3,5,4,,45,,6,,7,,8-5[8:1]*-5[8:1],,1,,
{8}6h[4:1],,2,3,4-1[8:1],5,2h[4:1],,
8h[8:3],,7,6,5>1[8:3]/8,,8,7,
6,5,4b<8[8:3],,1,2,3,4,
57,57,68,68,,1b,1b,,
{16}2h[8:3]/1,8,7,6,5,4,3V57[16:3],,,,1,,1,,,,
7h[8:3]/8,1,2,3,4,5,6V42[16:3],,,,8,,8,,,,
1/6h[2:1],,,,3,,4,,5,,6,,47,,3,,
2h[4:2]/5,,5h[8:1],,,,4h[8:1],,,,4,,3,,2,,
{16}16,,,4,5,,2,,4,5,,,38,,,2,
1,,45,,37,,6,5,6,4,6,3,6,2,6,,
1pp4[8:3]/5,,,,5,,,,5,6,7,8,1h[8:1],,,,
13,,13,,24,,24,,,,68,,68,,47,,
{16}47,,4,,35,,2,,1/8-4[8:1],7,6,5,4/8b,,,,
{16}7-4[8:1]/8-5[8:1],,,,7-3[8:1]/8,,,,7,,,2,4,,5-1[8:1]/6-8[8:1],,
8-4[8:1],,56,,,,2-6[8:1],,3,,25,,8-4[8:1],,,,
5b^2[8:1]/8,,,,5bpp8[16:5]/6,,,,5b/1,,2,,2,,3,,
7h[16:3],,,5,7qq8[8:3],,4,,1>4[8:1]/7,,2,,1,,,,
{16}57,,3,4,2,,1-5[8:1],8,2-6[8:1],,1,,2,,,,
47,,6,5,7qq8[8:3],,8,1,7,,8>6[8:3],,3,,4,,
3pp2[8:3],,,,3,,7pp6[8:3],,,,7,,3,,,,
,,5h[8:1]/4h[8:1],,,,18,,3-6[8:1]/7-2[8:1],,,,37,,,,
{16}1-4[8:1]/2-5[8:1],,,,1/2-6[8:1],,,,2,,,7,5,,3-1[8:1]/4-8[8:1],,
1-5[8:1],,34,,,,6,,4-1[8:1]/7v1[8:1],,,,47,,,,
2h[8:1]/7h[8:1],,,,8,,45,,27,,3V52[16:4]/6-8[8:1],,18,,36,,
,,1,8,7,6,5h[8:3],,2-6[8:1],,,,2,,,,
{16}17,,6,,45,,3,,28,,7,,46,,3<6[8:1]/5,,
2qq7[8:3],,3,,2,,5,,5b<8[8:1],,,,1b>4[8:1]/5bp8[8:1],,,,
1b/5b,,,,3-7[8:1]/7-3[8:1],,2,,3b/7b,,,,,,45,,
2h[16:3],,,1,3p1[8:3]/8<6[8:1],,6>2[4:1],,38,,,,,,,,
{16}38,,2,,45,,1h[8:1]/6h[8:1],,,,47,,6,,18,,
5h[8:1]/2h[8:1],,,,34,,5,,16,,27,,3-5[8:1]/8h[4:1],,,,
3,,,,7-4[8:1],,4,,37,,1,,1-5[8:1],,,,
15,,,4,7-5[8:1],,4,,37,,2,,2,,,,
{16}61,,7,,54,,8h[8:1]/3h[8:1],,,,52,,3,,81,,
4h[8:1]/7h[8:1],,,,65,,4,,83,,72,,6h[8:1]/1h[8:1],,,,
{8}28,3,45,7h[8:1],8,16,5,3,
12,34,56,78,,1,2qq7[2:3]/4,,
{8}5,,,4,4,,,6,
6,,,5,5,,,6,
2/5p4[1:1],,,4,{16}4,,,3,,,2,,
{8}1h[2:1],,,,7h[8:3],,,8,
{16}56,,34,,12,,7V53[4:1]/8,,,,1,,1,,,,
28,,24,,46,,6/8V24[4:1],,,,6,,6,,,,
6,,5,,6,,47,,3,7,2,8,1-5[8:1],,,,
1^6[8:1]/5^2[8:1],,,,15,,,,15,,15,,37,,,,
{16}3h[2:1]/6h[2:1],,,,,,,,,,,,27,,8b-4[8:1]/1b-5[8:1],,
,,8b<1[8:3]/1b>8[8:3],,,,8b/1b,,,,,,,,,,
6-8[8:1]/2-5[8:1],,,,6p4[16:5]/2,,,,46,,1,,1,,3,,
5h[16:3],,,4,6pp5[8:3],,3,,1>4[8:1]/6,,2,,1,,,,
{16}26,,7,8,6,,3,5,4qq2[8:1]*pp6[8:1],,3,,4,,,,
37,,8,1,7,,3,4,2,,6,,4/7qq1[8:3],,2,,
17,,,,3q5[8:3],,2,,3/8<5[8:1],,6,,8,,,,
,,4h[8:1]/6h[8:1],,,,18,,2>5[8:1]/6<1[8:1],,,,26,,,,
{16}4<7[8:1]*q8[8:1],,,,4>1[8:1],,,,4,,7,6,52,,3,,
16,,5,,47,,8,,16,,3,,4/5p1[8:1]*>1[8:1],,6,,
5,,,,,,27,,1b/8<4[8:1],,4bq8[8:1],,3b,,2b,,
,,1,2,3-7[8:1],4,5,,3-5[8:1],,,,3/8-3[8:1],,,,
{16}4-1[8:1]/8,,5,,4/6-4[8:1],,7,,2-6[8:1]/6,,1,,2/5-8[8:1],,4,,
3-7[8:1]/5,,2,,38,,6,,1>3[8:1]/5>3[8:1],,,,1-7[8:1]/5-7[8:1],,,,
1V35[16:3]/5,,,,16,,7,,8-4[8:1],,,,83,,2,,
1h[2:1]/3h[4:3],,,,,,,,,,1b,,1b,,,,
{8}
45,3,28,1h[8:1]/7,6,78,1,24,
3h[8:1]/5h[8:1],,47,8,1-4[8:1]/6-3[8:1],78,16,,
56,7,28,1h[8:1]/4,5,7,2-4[8:1]/8-6[8:1],1,
2v5[8:1]/8v5[8:1],,28,,3-8[8:1]/7-4[8:1],6,37,,
25,1,37,1h[8:1]/6,8,47,3,26,
8h[8:1]/1h[8:1],,36,1,2-5[8:1]/6-1[8:1],3,26,,
{16}48,,3,4,1<4[4:1],,2,,4v6[8:1],,3,,2,,2,,
1b,,8b<4[8:1]*>4[8:1],,6b/2b,,8b,,,,,,,,,,
{1}E
