&title=雪男
&artist=かねこちはる
&first=0
&des=草树
&lv_5=14+
&inote_5=(256)
{1},,,{4},,,{32},,,,,,3x>1-6V84[16:37],4x,
{1}5hx[2:6],,,
{4}C,,B6/B7/B3/E4,{32},,,,,,7x,6x,
{8}5hx[4:2],,B4,,B3,,,,2h[4:2]/4,,E1,,E8,,,,6hx[4:2]/Ch[4:4],,,,,,,,8h[4:2],,,,,,,,
{8}7hx[4:2]/1x-5V38[4:6],,,,,,,,6x,,6,,6,,6,,5xV74-8[4:6]/1hx[4:2],,,,,,,,2x,,2,,2,,2,,
{8}3x/7x,3h[4:1],,6h[4:1],,5h[4:1],,4,2x,2h[8:1],5x,5h[8:1],3x,6,4x,7,
{4}5b-1-3b[4:2]/8xV64[4:2],,,,,,,1b/8b,
{8}2x-4[8:1]/5x,,6,,5-1[8:1]/7,,8,,2hx[8:1],,3h[8:1]/8,,2h[8:1]/7,,1h[8:1]/6,,
{8}5x-7[8:1],5,3b,,8-4[8:1]/2,,1,,5hx[8:1],,6h[8:1]/3,,7/4,,6,6,
{8}5hx[8:1]/4hx[8:1],,5h[8:1]/4h[8:1],,3hx[8:1]/4hx[8:1],,5h[8:1]/4h[8:1],,6hx[8:1]/5hx[8:1],,5h[8:1]/4h[8:1],,3hx[8:1]/4hx[8:1],,25,,
{16}3b,4,3,4,2,,6b,5,6,5,7,,1bV73-5[4:3],8,1,8,{1},
{8}6x-8[8:1],6,1,,1-5[8:1]/2,,3,3,4hx[8:1],,5h[8:1]/7,,4h[8:1]/6,,3h[8:1]/5,,
{8}1x-3[8:1],1,4b,,4-8[8:1]/5,,6,,7hx[8:1],,6h[8:1]/1,,5h[8:1]/2,,4h[8:1]/3,2,
{8}1b/5x<8[8:3],,,,B2/E2/E3,,,{16}4x>1[8:4],,,,8,,8,,,,E7/B6/E6,,,,5hx[4:1],,,,
{16}2b,4,2,4,1h[8:1],,7b,8,7,8,6h[8:1],,1b-6<8-4[4:3],2x,3x,4x,{4}5hx[4:2],,,1bx,
{8}2b-4[8:1]/5x,,5,,6h[8:1],5,7h[8:1],5,6x/5x-1[8:1],,7,7,8-4[8:1]/2,,3,,
{8}2x-5[8:1],,6,7x-3[8:1],,8,1x<5[4:1],,5x>1[4:1],,1x,,8,,7,,
{16}6hb[4:1]/1x,,,,2x,3,4,5,8x,1,2,3,4,5,6,7,{12}E4/8x,E3,E2,E6,E7,E8,4hx[4:1],,,8hx[4:1],,,{16}4x,3,2,1,8,7,6,5,4x/8x,1,2,3,4x,5,6,7,{1}8bx/Ch[4:3],
{8}7b,7,8h[8:1],6,1x/6x,1,8h[8:1],2,4x/2x,4,3h[8:1],5,6xh[8:1],4,7xh[8:1],5,
{8}4bx-2[8:1]/7x,4,5,6bx-8[8:1],6,1,2bx-6[8:1],2,5x<1[4:1],,1x>5[4:1],,5x,,2x-6b[8:1],,
{16}2b,,,,7bx,8,7,8,6x,,6x,,1-4[8:1]/5,,,,1x/6,,7x-3[8:1],,,,7x/8,,,,1x,,{32}A2,E3,E4,A4,A7,E7,E6,A5,{8}Ch[4:2],,,,8,8,17,17,E2,E6,E3/D3,E7/D7,E4,E8,E5/D5,E1/D1,{1}Cf,,,,
{8}E3,E5,E4,E6,C,,7hx[4:3],,,,,,8,8,,1,E7/B6/E6,,,E5/E4/B4,,,2hx[4:3]/E8/E1/B8,,,,{16},,,E2,E3,,,,,,,,
{8}6h[4:1]/5v7[4:1],,,,8h[8:3],,,1V35[8:3],,7,7,,6hx[4:2],,,,7v5V31[8:5],,,,8,,7,7,,6,6h[4:1],,E2/B2,B7/B6,,4,4xv2[4:1]/3xh[4:1],,,,1h[8:3],,,8V64[8:3],,1,1,,2hx[4:1],,,,
{8}1x-5[8:1],,,,2x-5[8:1]/8x-5[8:1],,,,3b-5b[8:1]/7b-5b[8:1],,,,2/8,2hx[4:1]/8x,,7x,1x-5[8:1]/7x-3[8:1],,,,2b-5b[8:1]/6b-3b[8:1],,,,4xp7[4:2]*q1[4:2],,,,C,,,,
{8}8x-3[8:1]/2bx-6b[8:1],,,,4x-7[8:1]/5bx-1b[8:1],,,,3x/8x,3/8h[4:1],,2,{16}1/7b,6,5,4,2b,1x,2x,1x,2x-6[8:1],,,,,,,,8x-5[8:1]/4x-1[8:1],,,,,,,,B7/B6/B2/B3/E3/E7/Ch[4:3]/A2/A3/A7/A6,,,,,,,,,,,,,,,,
{8}2x/E1,,2,,2/E8,,2,,2h[8:1]/E7/B6,,2h[8:1],,2h[8:1]/E6/B5,,2,3,4x,,4,,A6/B6/4,,4-6<7-3b[4:2],,7hb[4:2],,,,,,,,
{8}8x,8h[8:1],4,4h[8:1],7x,7h[8:1],3,3,6x/3b,6,4b/7,4,5b/8,8,1/6b,6,{16}5xb,4x,3x,2x,7bx,6,5,4,1bx,8,7,6,{32}E5,E4,E3,E2,E1,E8,E7,E6,
{8}E5f/8hbx[4:2],,,,4x-8b[8:1],,4b,,
{8}1x-5[8:1]/7x,,1<6[8:1],,4,4,3,2,1x/4x-8[8:1],,4>1[8:1],,4,,7,6,5x/1x,1h[4:1]/5<8[8:1],,5>2[8:1],,5,,1,8x,8x-5[8:1],,8>2-6[4:1],,8,,,
{8}7b-4[8:1],7,3,2,5x-1[8:1],5,4,,2x-6[8:1],,7,7,5-1[8:1],5,6x,7,8x,8x<5[8:1],,8b-4[8:1],,8b>7b[32:10],,8b,,,{16}1x,2,3,4,5x-1[8:1]/8-4[8:1],,,,,,,,
{16}2hb[4:1]/6x,,,,7,6,5,4,1x,,1b-5[8:1],,,,1b<6[8:1],,,,1,,{12}4x,3,2,5x,4,3,6x,5,4,7hb[4:1],,,{16}2,3,4,5,8x,,8b-4b[8:1],,,,8b>3b[8:1],,,,8b,,{12}5x,6,7,4x,5,6,3x,4,5,
{16}2hb[4:1],,,,8,7,6,5,4/8bx,,8b>3[8:1],,,,5<8[8:1]/8,,,,5b,,2bhx[4:1],,,,1,,3h[4:1]/8,,,,4,,5-7[8:1],,5,,8,,1,,2-6[8:1],,2,,8b,,,,{12}A7,E7,E6,A1,E1,E8,A3,E3,E2,A5,E5,E4,
{8}Chf[4:1],,,,1x,2xh[4:1]/8x,,7,6/1x-5[8:1],1,7,8,4x-8[8:1],4,7,6,1x/5x,1x>4b[8:1]/5xh[4:1],,1b<6b[8:1],,1b,,5,4x,4x-8[8:1],,4<7-3[16:5],,4,,,
{8}2b-5[8:1],,6,6,1-5[8:1],1,8,8hx[4:1],,5x-2[8:1],5,6,7x-3[8:1],7,8,1hx[4:1],,4bx,2/5b,2/5b,3/6b,3/6b,4/7b,4/7b,{16}8x,5,8,5,8x,5,8,5,7x-3[8:1],4,7,4,,,,,
{16}4x>1-5[8:5],,,,A5,D6,A6,D7,A7,,,,,,8hx[8:3],,,,4,,4-8[8:1],,,,7,,,,6,,,,5<8-4[8:5],,,,A4,D4,A3,D3,A2,,,,,,1hx[8:3],,,,5,,6,,37,,3hx[4:1]/7x,,,,8b-3[8:1],,,,
{8}2b-6[8:1]/8,,7-4[8:1]/2x,,1-5[8:1]/7x,,1x/8,7,6x<2V86[4:2],,2,,3,,4,5x,5bx>2[8:1],,56,7b-3[8:1],,17,1hx[4:1],,B7,,46,4x-6[8:1]/6hx[4:1],,,,,
{8}7b-3[8:1],7,2-5[8:1],2,6-1[8:1],6,3,3h[8:1],{16}8x,7,6,5,8x,1,2,3,7-3[8:1],,,,7x/8x,,1,,
{16}2b-6[8:1],,,,4-7[8:1],,4,,1x-5[8:1],,1,,8,,8h[8:1],,4x,3,2,1,7x,6,5,4,1bp4[8:1]*q6[8:1],,,,1b,,,,
{16}3b,7,3,7,3,7,3,7,3x,7,3,7,3,7,3,7,2x,8,2,8,2x-6b[8:1],8,2,8,2b,,,,4/8hx[4:1],,,,{24}1b,2,3,8x,7,6,2x,3,4,7x,6,5,{32}1b,2,3,4,5x,6,7,8,1x,2,3,4,5x,6,7,8,{1}1bs5[4:2]*z5b[4:2],
{8}6x-8[8:1],6,1,,1-5[8:1]/2,,3,3,4hx[8:1],7,5h[8:1],6,4h[8:1],5,3h[8:1],6,
{8}1x-3[8:1],1,4b,,4-8[8:1]/5,,6,6,7hx[8:1],1,6h[8:1],2,5h[8:1],3,6h[8:1],4,
{16}7hb[4:1],,,,5x,4,3,2,5x,4,3,2,5x,4,3,2,1x/7x<4[8:1],,,,8xv5[8:1],,,,1x<6[8:1],,,,2x,,2x,,
{16}3b,,3bh[8:2],,,,4hb[4:1],,,,2b,,1b/5b,,,,2x,4,2,4,1h[8:1],,7x,5,7,5,6h[8:1],,4x-8[8:1],5,4,5,{1}4bw8b[4:2],
{8}2b-4b[8:1],6,2,7,5-1[8:1],8,5,7,2x,2hx[4:1]/8x<5[8:1],,8b-4[8:1],,8b,,6x,7bx-5b[8:1],3,7,2,4-8[8:1],1,4,2,
{16}3hb[4:1],,,,1x,8,7,6,1x,8,7,6,1x,8,7,6,5x/2b>5b[8:1],,,,1bv4b[8:1],,,,8b>3b[8:1],,,,7,,7,,6b,,6hb[4:1],,,,5hb[4:1],,,,7b,,4b/8b,,,,7b,5,7,5,6h[8:1],,2b,1,2,1,3h[8:1],,8b-4[8:1]b,7b,6b,5b,
{8}4bx<8V26[4:5]/8bx/Cf,,,,{24}E3,B3,B4,{8},,,,,,,5h[4:2],,7,,8<4V26[4:5],,,,{24}E1,B1,B2,{8},,,,,,,3h[4:2],,7,,
{8}8hx[4:1],,2,,47,6,5,2hx[4:1]/4,,1,38,4,56,7,36,2,{16}1b,5,1b,5,1b,5,1b,5,2bx,6,3bx,7,4bx,8,5bx,1,{1}Chf[4:4],1<7-3<5s1[4:14],,,,
{8}2,2-5-1[8:11],,5h[8:11],,,,,,,,,,,,,4,4-7[8:4],,2,,,,,3h[8:1],4h[8:1],5h[8:1],6h[8:1],5h[8:1],4h[8:1],3h[8:1],C,E
