&title=エンドロールはつづいてく。
&artist=ああああ
&first=0.039
&lv_2=6
&des_2=DMXC
&inote_2=
(156){4},,,,,,,,,,{2}Cf,
{4},4h[2:1]/5h[2:1],,,{2}1,
3,
5,7,
{4}B8,B1,B2,B3,
B4,B5,{2}C,
{4}1,1,2,2,
3,3,4,4,
{2}6h[4:1],7h[4:1],
8h[4:1],{4}B1,Cf,
{1}1-5[2:1],
6-2[2:1],
8-4[2:1],
4-8[2:1],
{4}1x,3x,5x,7x,
8x,6x,4x,2x,
{2}1xh[4:1],4h[4:1],
{4}5/4,5/4,,1bx/8bx,
4,5,3,6,
{1}7-3[2:1],
{2}2h[4:1],7h[4:1],
{4}4,4,5,5,
{1}7>4[4:3],
{4},B2,B3,B4,
{1}5>7[4:3],
{4},B8,{2}Cfh[2:1],
{4},5,,5,
4,4,,4,
4,4,4,4,
6,6,6,6,
2,2,2,2,
8,8,8,8,
1bx,2x,3x,4x,
5x,6x,7x,8x,
6h[4:3],,,5bx,
3h[4:3],,,4bx,
{1}1>4[2:1],
{16}8<5[2:1],,,,,,,,,,,,,,,,{2}5h[2:1],
4,
1h[2:1],8,
{4}1,3,5,7,
{1}8h[2:1]/1h[2:1],
{4}3h[4:3],,,4,
6h[4:3],,,5,
{1}8<5[2:1],
1>4[2:1],
{2}4h[2:1],5,
8h[2:1],2b,
{4}8,6,4,2,
{1}1bxh[2:1]/8h[2:1],
1bx-4[4:3],
,8bx-4[4:3],
{2},,E1,
B4,
B7,E5,
{1}Ch[2:1],
Ch[2:1],
{2}E1,B5,
B2,E5,
{1}Ch[2:1],
Ch[2:1],
8-4[2:1],
3-7[2:1],
1-5[2:1],
5-1[2:1],
{4}8x,7x,{2}6x,
{4}1x,2x,{2}3x,
{1}8xh[2:1],
{4}4/5,4/5,5/4,5bx/4bx,
5,4,6,3,
{1}2bx-6[2:1],
{2}7bxh[4:1],2bxh[4:1],
{4}5,5,4,4,
{2}5h[2:1],4,
1h[2:1],7b,
{4}5x/4x,4x/5x,6x/3x,5x/4x,
{1}5xh[2:1]/4xh[2:1],
{4}6h[4:3],,,5,
3h[4:3],,,4,
{1}1>4[2:1],
8<5[2:1],
{4}3h[4:3],,,4,
6h[4:3],,,5,
{1}8<5[2:1],
1>4[2:1],
5h[2:1]/4h[2:1],
6h[2:1]/2h[2:1],
8bxh[1:2]/1bxh[4:7],
{2},,1x,
1x,
{4}4bx/5bx,4bx/5bx,4bx/5bx,5bxh[4:3]/4bxh[4:3],
,,,,{1}7x-2[4:7],
E
&lv_3=11.5
&des_3=DMXC
&inote_3=
(156){4},,,,B8,
B7,B1,B2,
B4,B5,{2}Cf,
{4}4,4h[2:1]/5h[2:1],,,1,
1/2,3,3/4,
5,5/6,7,7/8,
B8,B1,B2,B3,
B4,B5,{2}Cfh[4:1],
{8}1,1,{4}1,{8}2,2,{4}2,
{8}3,3,{4}3,{8}4/5,4/5,{4}4/5,
6h[4:1],5,7h[4:1],6,
8h[4:1],7,{8}B1,B3,{4}Cf,
{1}2/1-5[2:1],
7/6-2[2:1],
1/8-4[2:1],
5/4-8[2:1],
{8}1x,2x,3x,4x,5x,6x,7x,8x,
8x,7x,6x,5x,4x,3x,2x,1x,
{2}1xh[4:1],4h[4:1],
{4}5/4,5/4,1/8,1bx/8bx,
{8}4,4,5,5,3,3,6,6,
{1}7-3[2:1],
{2}2h[4:1],7h[4:1],
{8}4,4,{4}4,{8}5,5,{4}5,
{1}7>4[4:3],
{4}C,B2,B3,B4,
{1}5>7[4:3],
{4}C,B8,{2}Cfh[2:1],
{4}5b,5,5,5,
4,4,4,4,
4/5h[4:3],4,4,4,
6/3h[4:3],6,6,6,
2/7h[4:3],2,2,2,
8/1h[4:3],8,8,8,
1,2,3,4,
5,6,7,8b,
{8}6h[4:3],{16},,,,B2,B3,{4}B4,5bx,
{8}3h[4:3],{16},,,,B7,B6,{4}B5,4bx,
8/1>4[2:1],7,6,5,
1/8<5[2:1],2,3,{16}4,,,,{8}5h[2:1],
,,4,{4}4,3,
{8}1h[2:1],,,8,{2}8,
{8}1,2,3,4,5,6,7,8,
{4}8h[2:1]/1h[2:1],,,1b,
{8}3h[4:3],{16},,,,B7,B6,{4}B5,4,
{8}6h[4:3],{16},,,,B2,B3,{4}B4,5,
1/8<5[2:1],2,3,4,
8/1>4[2:1],7,6,{16}5,,,,{8}4h[2:1],
,,5,{4}5,6,
{2}8h[2:1],2b,
{8}8,7,6,5,4,3,2,1,
{1}1bxh[2:1]/8h[2:1],
1bx-4[4:3],
,8bx-4[4:3],
{4},,,,E1,
B2,B4,B6,
B7,E7,E5,E3,
{2}Ch[2:1],,
{1}Ch[2:1],
{4}E1,B7,B5,B3,
B2,E3,E5,E7,
{1}Ch[2:1],
Ch[2:1],
7/8-4[2:1],
2/3-7[2:1],
8/1-5[2:1],
4/5-1[2:1],
{8}8x,7x,6x,5x,4x,3x,2x,1bx,
1x,2x,3x,4x,5x,6x,7x,8bx,
{2}8xh[4:1],5h[4:1],
{4}4/5,4/5,8/1,8bx/1bx,
5,4,6,3,
{1}2bx-6[2:1],
{2}7bxh[4:1],2bxh[4:1],
{8}5,5,{4}5,{8}4,4,{4}4,
{8}5h[2:1],,,4,{4}4,3,
{2}1h[2:1],7b,
{8}8x,1x,7x,2x,6x,3x,5x,4x,
{1}5xh[2:1]/4xh[2:1],
{8}6h[4:3],{16},,,,B2,B3,{4}B4,5,
{8}3h[4:3],{16},,,,B7,B6,{4}B5,4,
8/1>4[2:1],7,6,5,
1/8<5[2:1],2,3,{16}4,,,,{8}3h[4:3],
{16},,,,B7,B6,{4}B5,4,
{8}6h[4:3],{16},,,,B2,B3,{4}B4,5,
1/8<5[2:1],2,3,4,
8/1>4[2:1],7,6,{16}5b,,,,{1}5h[2:1]/4h[2:1],
6h[2:1]/2h[2:1],
8bh[1:2]/1bh[4:7],
{4},,,,1b,
1b,1b,1b,
4b/5b,4b/5b,4b/5b,5bh[4:3]/4bh[4:3],
,,,,{1}7x-2[16:11]/1x-4<6-3<4[16:43],
E
&lv_4=12.8
&des_4=DMXC
&inote_4=
(156){4},,,,{2}4-8[8:1],
5-1[8:1],
2-5[8:1],{4}7-4[8:1],7>3[4:3],
{8},,,,,,,,6h[4:3],
,,4,{4}4v7[8:1],4,
{8}3h[4:3],,,5,{4}5v2[8:1],5,
{8}2h[4:3],,,8,{4}8v3[8:1],8,
{8}7h[4:3],,,1,{4}1v6[8:1],1,
{2}6h[4:1]/5h[4:1],5h[4:1]/4h[4:1],
4h[4:1]/3h[4:1],5h[4:1]/4h[4:1],
{4}6h[4:7],2,3,4,
{8}4h[4:1],{16},,,,3x,2x,{4}1x-5[8:1],1b,
{8}6/3,4,6/3,5,6/5,3,5/7,2,
{4}1h[16:3]/8h[16:3],8/1,B6,B2,
2-5[8:1],7-4[8:1],3-8[8:1],6-1[8:1],
{16}2h[4:3],,,,,,,1,{2}1,
{8}1,2,3,4,5,6,7,8,
1,2,3,4,5,6,7,8,
{4}1h[4:1],B6,8h[4:1],B2,
Cfh[2:1],6,{2}7b,
{8}5h[1:1],,,B2,{2}B3,
{8}4h[1:1],,,B7,{2}B6,
{1}5-2-7-4-1-6-3-8-5[8:13],
{8},,,,,,,,3h[1:2],
,,7,{16}6,,,,,,,E6,
{4}B5,4,5,4,
{16}4h[4:7],,,,,,,2,{2}1-6-8-5-7-2b[1:1],
{4},,,,2h[8:1]/4h[8:1],
6h[8:1]/3h[8:1],8h[8:1]/4h[8:1],6h[8:1]/2h[8:1],
5h[8:1]/3h[8:1],7h[8:1]/1h[8:1],6h[8:1]/5h[8:1],4h[8:1]/3h[8:1],
2h[8:1]/1h[8:1],7h[8:1]/8h[8:1],6h[8:1]/3h[8:1],2h[8:1]/4h[8:1],
6h[8:1]/3h[8:1],8h[8:1]/4h[8:1],6h[8:1]/2h[8:1],5h[8:1]/3h[8:1],
7h[8:1]/1h[8:1],6h[8:1]/5h[8:1],4h[8:1]/3h[8:1],2h[8:1]/1h[8:1],
7h[8:1]/8h[8:1],6h[8:1]/3h[8:1],6/3,1-5[8:1]/8-4[8:1],
{2}8b/1b,2b-5[8:1]/6b-1[8:1],
7b-4[8:1]/3b-8[8:1],5b/4b,
{4}5bh[2:1],{16}B3,B2,B1,B8,{2}B7,
{4}4bh[2:1],{16}B6,B7,B8,B1,{2}B2,
1-4[8:1]/5-8[8:1],{8}7/1,4,8/2,5,
{4}8/1,{8}3/6,2/7,{4}1-4[8:1]/8-5[8:1],8/1,
8bh[2:1],{16}B2,B3,B4,B5,{2}B6,
{4}1bh[2:1],{16}B7,B6,B5,B4,{2}B3,
4-1[8:1]/8-5[8:1],{8}6/4,1,5/3,8,
{4}5/4,{8}2/7,3/6,{4}4-1[8:1]/5-8[8:1],5/4,
7-2-5-8-3[2:3],{8}4,4,{2}4,
{1}1-6-3b[2:1],
{4}7-4[8:1]/3-8[8:1],7/3,2-5[8:1]/6-1[8:1],2/6,
6-1[8:1]/2-5[8:1],6/2,6h[8:1]/2h[8:1],4w8[8:1],
4b,8w4[8:1],8b,4w8[8:1],
4b,8w4[8:1],{2}8b,
{4}4h[4:1],3h[4:1],2h[4:1],1h[4:1],
8q3[8:3]*qq5[8:3],8,,B4/B3/B5/E5/E4,
{8}Cfh[1:3],,,E7,B6,,,B7,
B8,,,B5,{2}B4,
{1}5h[4:3],
5<4[4:3],
{4}2-5[8:1],7-4[8:1],3-8[8:1],6-1[8:1],
2-5[8:1],7-4[8:1],3-8[8:1],6-1[8:1],
{16}4h[8:3],,,,,,,3,{2}2,
{16}5h[8:3],,,,,,,6,{4}7,7b/2b,
7-4[8:1],2-5[8:1],6-1[8:1],3-8[8:1],
7-4[8:1],2-5[8:1],6-1[8:1],3-8[8:1],
{1}7b-4-6-3-5-7[8:5],
{4}2b-5-3-6-4-2[8:5],,,8>8[2:7],
{8}8b,,,3,3,,,4,
4,,,2,2,,,3,
3,,,4,4,,,5,
5,,,4,{2}4,
8bxw4b[8:1],5bxw1b[8:1],
4bxw8b[8:1],1bxw5b[8:1],
{8}6,6,6,6,2,2,2,2,
7,7,7,7,{16}1,8,1,8,1,8,1,8,
{4}1w5[8:1],1bx,5xs1[8:1]*-1[8:1],5x,
8w4[8:1],8bx,4xz8[8:1]*-8[8:1],4x,
{2}8bxh[4:1]/1bxh[4:1],{4}7bxh[8:1]/2bxh[8:1],6bxh[8:1]/3bxh[8:1],
{2}5bxh[4:1]/4bxh[4:1],5b/4b,
{4}7-4[8:1],2-5[8:1],6-1[8:1],3-8[8:1],
7-4[8:1],2-5[8:1],{2}6-1[8:1],
{8}4bx/5bx,4bx/5bx,4bx/5bx,4bx/5bx,6bx/5bx,6bx/5bx,5bx/6bx,6bx/5bx,
4bx/3bx,4bx/3bx,4bx/3bx,4bx/3bx,{4}5bxs1b[8:1]/4bxz8b[8:1],5bx/4bx,
7-4[8:1],2-5[8:1],6-1[8:1],3-8[8:1],
7-4[8:1],2-5[8:1],6-1[8:1],3-8[8:1],
7-4[8:1],2-5[8:1],6-1[8:1],3-8[8:1],
7-4[8:1],2-5[8:1],6-1[8:1],3-8[8:1],
{8}3x<6[4:3],,,2,2,,,1,
{4}1,3,{8}B7,B2,C,B8,
{4}7-4[8:1]/3-8[8:1],7/3,2-5[8:1]/6-1[8:1],2/6,
{16}1,8,1,8,1,8,1,8,{2}1b,
{1}2-7-4-1-6-3-8-5-2[4:11]*-7-4-1-6b[8:11],
{2},,,,,,B7f/E8f/B8f/A8f/A7f/D8f,
B4f/E5f/E4f/B3f/D4f/A4f/A3f,
E6f/A6f/D6f/A5f/E2f/A1f/D2f/A2f,A6f/E5f/B4f/E4f/B3f/B2f/E3f/E2f/B1f/E1f/B8f/E8f/B7f/E7f/E6f/B5f/B6f/A5f/D5f/A4f/D4f/A3f/D3f/A2f/D2f/A1f/D1f/A8f/D8f/A7f/D7f/D6f/Cf,
,,{1}7-2[4:3]/1-5<6-3<4[4:7],
E
&lv_5=14.1
&des_5=DMXC
&inote_5=
(156){4},,{2}B2/B1/E2/Ch[2:1],
{64}2x,3x,{32}4x-7[4:1],,,,,,,,7-2[4:1],,,,,,,,2-5[4:1],,,,,,,,5<1[4:1],,,,,,,,1>5[32:7],
,,,,,,{4}5-1[16:1],{32}B5/1w5[16:1],C,{16}B1,{32},,,,1bx/B1/B6/B4/Cf,B5/E6/E5,{16}D6/D5/A5,,,2bx,
4,3,5,4,6,5,7,6bx,8,5,7,4,6,3,5,
{8}2h[1:1],{16},,,,B7,B6,{2}B5,
{8}4h[1:1],{16},,,,B2,B1,{2}B8,
{8}6h[1:1],{16},,,,B8,B1,{2}B2,
{1}2-4v3V57[8:5],
{16}6h[4:1]/2h[4:1],,,,,,,2/6,1h[4:1]/5h[4:1],,,,,,,5/1,
8h[4:1]/4h[4:1],,,,,,,8/4,{4}7-2[8:1]/3v6[8:1],7/3,
1-3[8:1],7-1[8:1],5-7[8:1],3-5[8:1],
8-5[8:1]*-6[8:1],8>1-3<4<5-7>8[4:1]*-2-4-6-8[4:1],{64}8b,A8f,{4},{16},,,{32},{4}7-3[8:1]/1-5[8:1],
{16}7/1,,,4,5,,,5,6,,,6,
7<8[8:3],,,8,{4}7b,{8},,3,{16}B7,B6,
E6/3-8[8:1],,,3,6-3[8:1],,,6,8>3[8:1],,,8,4<7[8:1],,,4,
{32}3h[4:1],,,,,8,1,2,,4,{16}5,,8/2,{2}8h[4:1]/2h[4:1],
{4}2-6[8:1]/7<5[8:1],7>1[8:1]/2>4[8:1],2/7p3[8:1],7,
7-3[8:1]/2>4[8:1],2<8[8:1]/7<5[8:1],7/2q6[8:1],2,
2>5[16:1]/5<8[16:1],2/5p4[4:1],5/6,D8/A8/E8,
{16}7,4,7,4,8,3,8,3,{4}1-5[8:1],1b,
{8}2>6[1:1],,,B3,{2}B4,
{8}6V82[1:1],,,B5,{2}B6,
{8}2>4q5<7[1:1],{16},,,,A8,D1,{2}A1,
{1}Ch[2:1],
{16}6h[2:1],,,,,,,5,5h[2:1],,,,,,,4,
4h[2:1],,,,,,,3,{2}3h[2:1],
{16}2-7-4-1-6b[2:3],,,,,,,3,{2}2h[4:1],
{1}2-5-8-3-6[2:1],
{4}6b/4b,{8}6/4,{16}4,5,{4}6/4,{8}4/6,{16}4,5,
{4}3/5,{8}3/5,{16}5,4,{4}3/5,{8}6/4,{16}5,5,
{4}5,{8}5/3,{16}4,4,{4}4,{8}5/3,{16}B3,B4,
{4}B5,{8}5/7,{16}B7,B6,{4}B5,{8}5/2,{16}5/2,6/3,
{4}7/4>7[4:1],{8}4,{16}7,6,{4}5>8[4:1],{8}5,{16}B2,B3,
{4}B4,{16}6,3,{8}5,{16}2,,,2,5,,,1,
1bx/5,2,3,4,5/1,6,7,8,1/5bx,6,7,8,1/5,2,3,4,
5/1bx,2,3,4,1/5,6,7,8,{32}1/6bx,5,4,3,2,1,{16}8,{32}2bx,3,4,5,6,7,{16}8,
{8}6b-3[16:1]/2b-7[16:1],{32},,,,,,,,8x/4x,1x/5x,2x/6x,3x/7x,{4}4-1[16:1]/8-5[16:1],8/4,
{8}5b-8[16:1]/1b-4[16:1],{16},,,,3/7,2/6,{4}1-4[16:1]/5-8[16:1],1/5,
{8}4b-1[16:1]/8b-5[16:1],{16},,,,6,7,{8}1/8-4[16:1],7,8/1-5[16:1],2,
{4}1/8<5[16:1],{32}3,2,{16}1,6x/2,7x/3,{4}4-1[16:1]/8x-5[16:1],8/4,
{8}7b-4[16:1]/3b-8[16:1],{16},,,,5/1,6/2,{4}7-4[16:1]/3-8[16:1],3/7,
{8}2b-5[16:1]/6b-1[16:1],{16},,,,4/8,3/7,{4}2-5[16:1]/6-1[16:1],6/2,
{8}1/5<8[16:1],6,1>4[16:1],2,1/8<5[16:1],7,8/4>1[16:1],3,
{48}4/8<5[16:1],,,,,,,,,,,,,,,,,4x,3x,2x,1x,8x,7x,6x,{4}1bx-4[16:1]/5bx-8[16:1],1/5,
{8}8b-5[16:1]/4b-1[16:1],{32},,,,,,,,6/2,7/3,8/4,1/5,{4}2-7[16:1]/6-3[16:1],2/6,
{8}7b-2[16:1]/3b-6[16:1],{32},,,,,,,,1/5,8/4,7/3,6/2,{4}5-8[16:1]/1-4[16:1],1/5,
{8}8b-5[16:1]/4b-1[16:1],{16},,,,2,3,{8}5/4-8[16:1],3,4/5-1[16:1],6,
{4}5/4,{8}4/8,{32}4/8,3/7,2/6,1/5,{4}4/8-4[16:1],8/4w8[16:1],
{8}4b,,,1,1h[2:1],,,8,
7h[2:1],{16},,,,6x,5x,4xh[16:3],,,5h[16:3],,,{8}6h[8:1],
{4}7-3[16:1],7/2-6[16:1],{8}7/2,7,B8/B7/E8,B1/E2/B2,
{32}2bx,3,4,5,6,7,8,1,2/7bx,6,5,4,3,2,1,8,7/4bx,5,6,7,8,1,2,3,{4}4x/5x,
{1}2h[1:1],
3h[1:1],
4h[1:1],
{2}5-1[4:1],{32}2x,3,4,5,6,7,8,1,2/5,4,3,2,1,8,7,6,
{8}4bx/5bx,{16}4,5,{8}4,4,4/5,{16}5,4,{8}5,5,
4/5,{16}4,5,{8}4,4,4/5,{16}5,4,{8}5,5,
5h[4:3]/4h[4:1],{16},,,,3x,2x,{2}1xh[8:7],
{4}5,{8}5,{16}6x,7x,{4}8xz4[8:1]/1xs5b[8:1],8b/1b,
{8}6/5,{16}6,5,{8}6,6,5/6,{16}6,5,{8}6,6,
4/3,{16}3,4,{8}3,3,3/4,{16}3,4,{8}3,3,
{4}3/4h[2:1],{16}B3,B2,B1,B8,{4}B7,5,
6h[2:1],{16}E6,B6,B7,B8,{4}1q5[8:1],1>6[1:1],
{8}1/8xh[4:1],,,1x,1xh[4:1],,,2x,
{4}2xh[4:1],6,2-7[8:1]/6v3[8:1],6/2,
4qq4[4:1],4pp4[4:1],,7,
3-6-1-4b[2:1],7-4[4:1],{16},,,,,,6,7,
{4}8h[4:3],{8}3b,{16}3,2,{32}1h[4:1],{64},,,,,,,,,,,,B1,C,{8}B5f,{16}3,2,
{4}1h[4:3],{8}6b,{16}6,7,{32}8h[4:1],{64},,,,,,,,,,,,B8,C,{4}B4f,
{8}8/7,7,7/6,6,6/5,5,5/4,4,
4/3,3,3/2,2,{32}8bh,7,6,5,4,3,2,1,8/3bh,4,5,6,7,8,1,2,
{8}7bxh[4:1]/3bxh[4:1],{16},,,,2/6,1/5,{4}8-3[16:1]/4-7[16:1],8/4,
{8}2bxh[4:1]/6bxh[4:1],{16},,,,7/3,4/8,{4}1-6[16:1]/5-2[16:1],1/5,
{2}2bh[4:1]/6bh[4:1],{4}7bh[8:1]/3bh[8:1],8bh[8:1]/4bh[8:1],
{8}1bh[4:1]/5bh[4:1],{16},,,,6/2,2/6,{4}2-7[16:1]/6-3[16:1],6/2,
{8}8/1-5[8:1],2,1/7-4[8:1],8,7/2>5[8:1],{16}1,1,{8}2/8-4[8:1],7,
{4}8/2>6[8:1],{32}2,,,,,7,8,1,{4}2-7[8:1]/6-3[8:1],2b/6b,
{8}1-5[8:1],8-4[8:1],1-3[8:1],8-6[8:1],1-5[8:1],8-4[8:1],1>5[8:1],8,
{32}1b,,,,,6x,7x,8x,1x,2x,3x,4x,E8/E4,B7/B3,B2/B6,E2/E6,{4}1x-4[16:1]/5x-8[16:1],5x/1x,
{8}4bv1[16:1]/8b-5[16:1],{32},,,,,,,,2/6,3/7,4/8,5/1,{4}2-7[16:1]/6-3[16:1],6/2,
{8}3bv6[16:1]/7b-2[16:1],{32},,,,,,,,5/1,4/8,3/7,2/6,{4}1-4[16:1]/5-8[16:1],5/1,
{8}8b-5[16:1]/4b-1[16:1],{16},,,,2,3,{8}5/4-8[16:1],3,4/5-1[16:1],6,
{4}5/4,{8}4/8,{32}4/8,3/7,2/6,1/5,{4}4/8-4[16:1],8/4w8b[16:1],
{8}4b,{16},,,,1/7,2/6,{8}3h[4:1]/5h[2:1],{16},,,,2,1,
{8}8h[2:1],{16},,,,4,5,6h[16:3],,,2h[16:3],,,{8}4,
8>3[8:1],4-8b[8:1],8<5b[8:1],4,,3,2,1/5x,
{32}E2,B2,B3,E4,E6,B6,B7,E8,E2,B1,B8,E8,E6,B5,B4,E4,{4}7x-2[16:1]/3x-6[16:1],{64}7b/3b/E8/E4/Cf,B8/B4,B1/B5,E2/E6,{16}A2/A6,,,{8}Cfh[1:4],
{16},,,,B8,B7,{8}B6,{16},,,,E6,E7,
{8}E8,{16},,,,A7,A6,{2}A5,
{1}6h[4:3],
{4}7h,6h,5h,6h,
{2}B7/E7/B6,E4/B4/B3/E2/B2/C/B1/E3f,
{4}E8f/E7/D7/E1/A7/D8/A8/B7/B8,E4f/E3/D3/E5/A3/D4/A4/B3/B4,E6f/E7/D7/E5/A6/D6/A5/B6/B5,E8/E1/B1/E2/B2/E3/B3/B8/E4/E5/B5/E6/B6/B7/E7/B4/Cf,
{16}3,1,3,1,8,6,8,6,5,7,5,7,2,4,2,4,
{32}5,6,{16}7b-2[16:27]/1bx-5<6-3<4[16:43],
E
