&title=うたかたのせかいで
&artist=DJ Raisei/Secta./nayuta
&first=0.049
&des=flawi
&lv_5=14+
&des_5=flawi
&inote_5=
(216){4},,,,,,,6,
{1}7x/4xh[1:3],
{32}B7,E7,{4},,,{16},,,{32}B5,
E5,{4},,,{16},,,{4}C,
,,3,
{1}2x/5xh[1:3],
{32}B8,B7,{4},,,{16},,,{32}B6,
B5,{4},,,{16},,,{1}C,
{8}6xh[4:1]/4xh[4:1],,,7xh[4:1]/5xh[4:1],,,{4}6x/8x<4[2:1],
,3,2,1,
{8}3xh[4:1]/5xh[4:1],,,2xh[4:1]/4xh[4:1],,,{4}3x/1x>5[2:1],
,6,7,8,
{8}3x/1x,2,2,2,5x/3x,6,6,6,
7x/5x,5,6/4,6,5x/3x,3,4/2,4,
{16}1x/5x,,,7x/3x,,,{8}6x/4x,{16}8x/2x,,,5x/3x,,,{8}4x/8x,
{16}2x,6,2,6,2,6,2,6,1,5,1,5,1qq5qq1[2:3],5,1,5,
{1}1,
{4},,,Cf,
4/7-3[8:1],7/1-5[8:1],6<1[8:1]/1>4[8:1],1/6,
5-2[8:1],5/8-4[8:1],1/8<6[8:1],8/3,
{8}1/5,6/2,{4}3-5[8:1]/8<6[8:1],8-4[8:1]/3-1[8:1],3-5[8:1]/8<6[8:1],
8w4b[8:1],8,{8}2x/6x,4x/8,{16},,7,5,
{4}7-3[8:1],{8}7/3,1-6[8:1],,1/5-1[8:1],,5,
2x-6[8:1],6,2,8-4[8:1],4,8,{4}1x-5[8:1],
{8}7x/1,6-2[8:1],1,6>4[8:1],,6/1,2,3,
7/4,8,2/6,{24}1,2,3,{8}7/4-8[8:1],8b,,,4/6-1[8:1],
5,{4}6/2<7[8:1],2/5-1[8:1],{8}5/4-7[8:1],3,
{4}4/8<5[8:1],8/3-7[8:1],{8}3-1[8:1],8-4[8:1],3<5[8:1],8,
3,{16}8,7,{4}2b/6b-1[8:1],{8}6/4-8[8:1],3,4/8,{16}7x,6x,
5x/2x,,,7x/4x,{48},,,,,,{24}8x,7x,6x,{16}5x/2x,,,3x/8x,,,{8}7x/1x,
{4}3b/5bh[4:1],{16}2,5,{8}2V48[4:1],5,6,7<4[8:1],7,
1,1,2,3,3-7[8:1],4,5,6,
{4}6/8,{16}7,1,{8}7,3xV15[4:1],6,3,5,
6,8x/4x,{16},6x/2x,,,{8}4x/8x,7x/3x,{4}2b/6b,
{8}5xh[4:1]/3xh[4:1],,,4xh[4:1]/2xh[4:1],,,1,2,
3/5,{16}4,6,4,6,{8}4,7,8x/2x,,,7x/4x,
5x/2x,,7x/1x,8h[8:3],2,3,4,
5/7,{16}6,4,6,4,{8}6,3-7[8:1],5,{4}7/3,
{8}2/6,6/2,1/7,7/1,{32}A2,D3,A3,D4,A4,D5,{16}A5,8,1,2,3,
{8}4/8,8/4,5/1,5/1,{32}A6,D7,A7,D8,A8,D1,{16}A1,5,6,7,8,
1/5,,,4/2,,,{8}8/6,{16}7/4,,,5/2,,,{8}1/7,
{16}2,8,2,8,3,7,3,7,4,6,4,6,5p1<6v1[4:5],5q1>4v1b[16:19],5,5,
{1}5b,
{4},,5bw1b[8:1],5b,
3/7<4[8:1],{8}7/2-6[8:1],1,2,8-4[8:1],5,8,
{4}2-8[8:1]*-7[8:1],2-5[8:1]*-4[8:1],2w6[8:1],2,
8<5[4:1],5>2[4:1],2<7[4:1],7<6>5>4b[4:1],
{8}4,3,2,1,{32}8,7,6,5,4,3,2,1,{4}6/8<5[8:1]*>3[8:1],
8-4[8:1],{8}8-6[8:1],2-5[8:1],8>3b[8:1],2,{4}8,
1w5[8:1],1,7-4[8:1]/3-8b[8:1],7/3,
{8}5/2,3,4/7,6,5/2,7/1,6/4,8/3,
{16}1,7,1,7,2,8,2,8,{32}3,4,5,6,7,8,1,2,{4}6x-1[8:1]/3x-5b[8:1],
6b/3b-7[8:1],{8}3,8-4[8:1],1-5[8:1],8-6[8:1],1,8,
{4}1-7<6[8:1]*-6[8:1],1-4[8:1]*-3<4[8:1],1w5b[8:1],1,
{8}7-5[8:1],8-4[8:1],7,8,1-5[8:1],2-4[8:1],1<6[8:1],2,
{4}1>4b[8:1],1/5,{32}8h,7,6,5,4,3,2,1,{4}4x/8x,
{8}3x/4x,2,1/8,7x,6/4,2,7x/1x,6,
5x/3x,4/2,1x/6x,7/4,8x/2x,6/5,7x/3x,{16}5/1,2/6,
7bx/3bx,,,4x/8x,,,{8}7x/3x,{16}1b/5b,,,6x/2x,,,4<2b[4:1],4,
{2}5b,{32}5b,4,3,2,1,8,7,6,5,4,3,2,1,8,7,6,
{8}5xh[4:1]/2xh[4:1],,,7/4,{16}6,5,7,5,{8}6h[8:1],{16}2,8,
1,8,{8}2h[8:1],{16}4,2,4,2,{8}5x-1[8:1],1,5/2,3,
4bxh[4:1]/8bxh[4:1],{16},,,,8,1,{8}7-4[8:1],2-6[8:1],7>1b[8:1],2,
7,2,{16}3,8,3,8,{4}7xv4b[8:1]/4xp8[8:1],7b/4b,
{24}5bx-1[8:1]/1bx-5[8:1],6x/2x,{12}7x/3x,{48},,,,,,,,,,,,,,,,{16}2,4,3,4,{8}2h[8:1],{16}8,1,
7,1,{8}8h[8:1],{16}5,8,5,8,{8}4x,6x/3x,5-3[8:1]/2-4[8:1],6x/1x,
{4}2b-7b[8:1]/5b-8b[8:1],5b/2b,{16}2,5,3,4,{8}2h[8:1],8,
7<4[8:1],8,1,2<5[4:1],3,4,,,4xh[4:1]/2xh[4:1],
,,7b/1b,,8>3[8:1],7,6,
5,4h[8:3],{24}2,3,,5,6,7,{8}8,1b/5b,{4}7b/3b,
{8}6b/4b,2b/8bh[4:1],,1,7,{16}6,4,6-1[8:1],4,{8}6,
3,2h[2:1],{24}8,7,6,5,4,3,,1,8,7,,,{4}5b/3b,
{8}4/6h[4:1],3,5,4/7h[4:1],{16}4xh,3,2,1,8,1,2,3,
{8}6/4h[4:1],7,5,6/3h[4:1],{16}5xh,6,7,8,1,8,7,6,
5x/2x,,,7x/4x,,,5,5,6x/1x,,,8x/4x,,,{8}6x/2x,
{16}1b,2,3,4,7b,6,5,4,{24}8b,1,2,3,4,5,1b,8,7,6,5,4,
{32}8b,1,2,3,4,5,6,7,8,1,2,3,4,5,6,7,8,1,2,3,4,5,6,7,{4}8bxw4b[8:1],
{1}8bx,
,,,{32}6h[2:1]/E3,
B3,{16}B4,{4},,,{16},,{32}1h[2:1]/E8,
B7,{16}B6,{4},,,{16},,{32}7h[2:1]/E5,
B4,{16}B3,{4},,,{16},,{32}4h[32:17]/E8,
B8,{16}B1,,,,,,,,,,,,,,,{4}6x/B3f/E3/B2,
{8}6,5,{4}6/4>7[1:1],6,
6,6,6,6,
3x/B6f/B7/E7,{8}3,4,{4}3/5<2b[1:1],3,
3,3,3,3,
{8}1x/8x,1,1/7,1,1/6,1/6,1/5,1/5,
1x/5x,5,5/2,5,3/5,5/3,4/5,5/4,
{16}6x/3x,,,8x/1x,,,{8}7x/3x,{16}5x/2x,,,8x/7x,,,{8}6x/5x,
{16}4,7,4,7,3,8,3,8,2,1,2,1,{32}2b,3,4,5,6,7,8,1,
{4}2b/Cf,{8},,,,E6,B5,
B4,,,B2/B1,,,{4}B7,
{32}B3,B4,,,,,,,,,,,{8}C,,,{4}B1,
{32}E7,B6,{4},,,{16},,,{2}Cfh[2:1],
{4},1/2,
{8}4bw8b[8:1],{32},,,,,,,,,,,,,,,,8b-4b[8:1],7/1,2/6,5/3,,,,,{8}8b>3[8:1],
,8/5,6-2[8:1],6,1-5[8:1],1,7<4[8:1],8,
7/2-5[8:1],1-6[8:1],2>4[8:1],1,2-6b[8:1],8,{4}2<3[4:1],
2/8-4b[8:1],8,{32}2,1,8,7,6,5,4,3,{4}2b/8b,
{8}3/7-4[8:1],1-5[8:1],7-1[8:1],1,7,2,3-8[8:1],3,
7-4b[8:1],7,1-5[8:1],1,1>4b[8:1],7,1,8,
5-1[8:1],5,5/7-3[8:1],7,7<4b[8:1],{16}2,1,{8}7,{16}3,2,
{4}1bxh[4:1],{16}8,7,6,5,1,4,2,5,{4}3bx>8b[8:1],
{32}3b/7bh[4:1],,,,,6x,5x,4x,{4}3x,{8}7/3,{16}6-1[8:1],4,{8}5,6/3,
2-6b[8:1],8-4[8:1],2,8<5[8:1],{24}1,2,3,8,,,2,3,4,8,7,6,
{8}2,{16}5,3,{8}4,{16}7-3[8:1],1,{8}8-2[8:1],7,8,{24}7,6,5,
{8}4b,{32}1b,2,3,4,{8}8,{32}1b,2,3,4,{16}7,5,7,5,6,4,6,4,
{8}7b/3b,{16}8,5,8,5,8,5,{8}8-4b[8:1],4,3/8b,2,
5b/1b,{16}1,4,2,5,3,6,{8}7bx/4bx,6x/3x,5x/2x,4x/1x,
8b/5b,{16}1,6,8,7,8,7,{24}8xh,1,2,3,4,5,{32}8b,7,6,5,4,3,2,1,
{1}8bqq5<8b[4:5]/4bqq1>4b[4:5],
{4},,,8b/1b,
{16}5b-1b[8:1],4b,5b,4b,{4}5b,{8}3/8-6[8:1],2-5[8:1],8-4b[8:1],2,
8,{16}1,2,7,6,3,4,7,5,7,5,8,7,6,5,
{8}4/1-5b[8:1],2,{64}1b/8b,Cf,,,,,,,,,,,,,,,{8}7-5[8:1],{24}3,2,1,{8}7-3[8:1],{24}2,3,4,
{8}7,{16}1,1,4,2,4,2,5,6,7,8,{32}5b,4,3,2,1,8,7,6,
{8}5b-1b[8:1],{16}8,8,{4}5b,{8}7b/3b,8,7x/1x,6/2,
5b/3b,7b/1b,8b/4b,6b/2b,{32}3,4,{16}5,{8}8,{32}6,5,{16}4,{8}1,
2x/8x,{16}7,3,{8}7h[8:1],5h[8:1],8v5[8:1],4>1[8:1],8,4,
6,6,{32}7/8h[8:1],,,,,1,2,3,{8}4b,{16}6,7b/5x,,3,{8}2b/4x,
{16}8b-4b[8:1],1b,8b,1b,{4}8b,{8}5x/3-8[8:1],{16}2,4,{8}3,6,
5<8b[8:1],{24}2,3,4,{8}5b,{24}1,2,3,{16}4xh[8:1],,,3xh[8:1]/7xh[8:1],,,{8}6x/2x,
{12}7x/1x,7/1,7/1,8bx-4[8:1],{24},,,,{8}8/3,2,{16}1,5,1,5,
{32}2b,3,{16}4,{32}8b,7,{16}6,,3b/5b,{32},,8b-4b[8:1],7/1,6/2,5/3,,,,,,,,,,,,,,,{4}6-1[8:1]/2-5[8:1],
6/2,{8}3/7,{16}2,8,{8}1,6/2,
{16}3,5,{8}4,{16}8,5,6,4,{8}7-3[8:1],3-7b[8:1],{4}7,
{8}1b,{16}3,3,7,5,{8}6/4,{16}8,4,7,5,1,3,6,2,
{24}8b,7,{12}6,{48},3b,,4,,5h[48:5],,,,,{8}8,{32}7b,6,{16}5,{48},,,2b,,3,,4h[48:5],,,,,{8}7,
{16}6b/3b,{48},,,,,,5b/8b,,7,,6h[48:5],{96},,,,,,,,{32}4,3,2,1,{16}8b,{32},,,,7b/1b,6/2,5/3,4h[32:3],,,,5,6,7,
{1}8b/1b>1[8:5],
{4}7xh[4:3]/C,{8},,,,5,4,
{4}6/3h[4:1],{8}5,4,6,3,7,6,
{4}2/5h[8:5],{8}3,3,,2,,1,
2x/6xh[8:5],,,,,5,4,3,
{4}5x/2xh[4:3],5,6,7,
5x/8xh[4:3],{8}4,4,,3,2,1,
{4}8,7,6,5h[2:1],
{48},,,,,,,,,,,,E3,B3,B4,E5,
E
