&title= アイドル (Full Extended Version)
&artist=YOASOBI
&first=0
&des=αγα!!・ω・
&lv_5=14+
&des_5=αγα!!・ω・
&inote_5=
(166){4},{1},,{4},{48}1bv4[48:31]/8bv5[48:31],
7/2,6/3,5/4,{4},,,{16},,{24},{48}4,
,,,,,,,,,,4h[48:13],{4},,,5,
5h[4:1],
,,5/4,4h[4:1]/5h[4:1],
,,{48}8>7[0.347##2.8916],1,{24}2,,,,,,,,,,,{1}B4,
B5,
{2}B4/B5,Ch[2:1],
{4},,{48},1/2,3/8,4/7,6,5h[8:3],{4},,{16},,{12}5h,
4,6,{4}3,{12}8,1,7,
{4}2,{12}B7,E4,E6,{4}C,{12}B1/E2,B6/E6,B4/E4,
{4}C,{12}5,3,7,2,5,3,Ch[2:1],B1,B2,
B3,B4,B5,B6,,,{4}7/2,{12}6,4,5,
{4}3,{12}8/3h[4:1],7,6,{4}5,{12}1/6h[4:1],2,3,
{4}4,{12}E8,E3,E6,{4}C,{12}E8/E4,E2/E6,E7/E3,
{4}C,{12}8/3h[4:1],7,6,{4}5,{12}8/3h[4:1],7,6,
5,4,3,2/Ch[4:1],,,{4}8-4[12:1]/1-5[12:1],8/1,
{12}7/3,6,4,2/5,3,4,{4}7-5[12:1]/2-4[12:1],7/2,
{12}2/6,3,5,7/4,6,5,{4}8-4[12:1]/4-8[12:1],8/4,
{12}7/3,6,4,2/5,3,4,{4}6/3,{12}1/6,5,3,
5/7,6,5,4/6,5,4,{4}5-7[12:1]/4-2[12:1],5/4,
{12}7/5,6,5,2/4,3,5,{4}4w8[12:1],4b,
{12}2/4,3,4,7/5,6,4,{4}5w1[12:1],5b,
{12}8/1,6,3,5,4,6/4,6,6,3/6,3,3,3/6,
6,6,6/3,5<8[12:1]/4>1[12:1],,,5/4,
||This
is
a
marking~
,,{4}8b/1b,
{12}7/5,6,6,4/2,3,3,{4}3-7[12:1]/6-2[12:1],3b/6b,
{12}3/1,2,2,8/6,7,7,{4}7-3[12:1]/2-6[12:1],7b/2b,
{12}7,5,6,2,4,3,5,1,7,3,6,4,
5,2,3,7,1,5,{48}1bh/7bh,6/2,5/3,4,,,,,,,,,1bh/7bh,6/2,5/3,4,,,,,,,,,{12}7,
5,6,2,4,3,{48}8bh/2bh,3/7,4/6,5,,,,,,,,,8bh/2bh,3/7,4/6,5,,,,,,,,,{12}7/5,
7,7,4/2,2,2,{48}4b/8b,3/7,2/6,1/5,,,,,,,,,4b/8b,3/7,2/6,1/5,,,,,,,,,5b/1b,
6/2,7/3,8/4,,,,,,,,,5b/1b,6/2,7/3,8/4,,,,,,,,,8b/1b,7b/2b,6b/3b,5b/4b,,,,,,,,,{12}E4,E6,C,
{2}E5h[4:1],{48}1b/8b,7/2,6/3,5/4,,,,,,,,,{24}7x,6x,5x,4x,3x,2x,
,8-4[24:1],,,,,,8,{48},,{16}2,2,{8}1-5[16:1],2,{12}1b,3-8[12:1],,4>6[4:1],
3b,,{4}4,4b,{24}2x,3x,4x,5x,6x,7x,
,1-5[24:1],,,,,,1,{48},,{16}7,7,{8}8-4[16:1],7,{12}8b,6-1[12:1],,5<3[4:1],
6b,,{4}5,{8}5b,5-3[16:1],5-7[8:1],5-1[8:1],
5,5,{32},,,,,,,4/2,,,,3,,,,7/5,,,,6,,5,{96},4,,,,3,
,,,{32}2,{96},1,,,,8,,,,{32}7,{96},6/3,,,,4,,,,{32}5,{96},6,,,,7,,,,{32}8,{96},1,,,,2,,,,3/6,,5b-8[24:1]/4b-1[24:1],{4},{16},,,{8}6/5,
6,3/4,3,7/6,6,3/2,3,
{16}8,{48}7,,6,,5,,4,,3,,2,,{16}8q5[24:1]/1p4[24:1],,,,1b/8b,,,,7b/5b,,,{4}2b/4b,
{8}6b/5b,4b/3b,{16},8b/1b,8b/1b,7-3[8:1]/2-6[8:1],{4},{16},,,{24},{48}1qq5[48:73]*pp5[48:73],
2/8,7b/3b,6/4,5,{1},{4},,,{16},,{24},{4}Ch[4:1],
{8}3x/5xV31[0.7229##0.2711],5,5,5,
5/7,7,7,7,5/2,{16}3,4,3,4,3,2,
,1,,8,,7,,6/4xV68[0.7229##0.3506],,4,,4,,4,,4/2,
,2,,2,,2,{24}1,8,7,6,5,4,1,8,7,6,5,4,8,1,2,
3,4,5,8,1,2,3,4,5,6V42[0.7229##0.347],,,{8}6x,6,6,6/8,
8x,8,8,8,{16}2,4,3,5,4,6,5,7,
4,6,3,5,{4}2/6h[8:1],{16}1bx,3,4,3,4,3>6[1.0735##0.3506],8bx,3,
4,3,4,3,7bx,3,4,3,4,3,{32},,,,,,,,1,8,1,8,
,,{16}8/1,,7h[8:1]/2h[8:1],{48},,,,,,,,,,,,8b,7,6,5,,,,,,8b,7,6,{8}5,{48}8b,7,6,5,{96},,,,,,,,,,,,,{32}8,
,1,,8,,1,,8,{96},,,,,,,,,1b,,2,,3,,{32}4,{96},,,,,,,,,1b,,2,,3,,{32}4,{96},,,,,,,,,1b,,2,,3,,{32}4,,,,,{16}7,
3,6,2-4[0.7229##0.0904],5,4,5,8,1,8,1,{4}2x/7-5[0.7229##0.0904],
{16}1,8,1,8,{8}7x-5[1.0735##0.0904]/2-4[0.7229##0.0904],{16}8,1,8,1,{8}8,7x/2x,5,
7x/2x,{24}B8/B1,B7/B2,E7/E3,{8}E6/E4,E5,{48}8b,7,{24}6,{48},,,,,7b,6,5,,,,,,,6b,5,{12}4,
{96},,,,,,,,,{32}8,,1,,8,,1,,8,{96},,,,,,,,,,{48}1b,2,3,,,,,,,2b,3,{24}4,{48},,,,,3b,4,5,,,,,,,,{16}B7/E8,
E2/B2,B5/B4,,C,{48},,,,,1b,2,3,4,8,,,{16}8,8,8,8,8,8,
{48}7b,6,5,4,,,{16}8,8,8,8,8,8,{48}1b,2,3,4,,,{16}8,8,{48}7b,6,5,4,,,{16}8,8,
{48}7b/1b,6/2,5/3,4<4[0.2711##0.3506]*>4[0.2711##0.3506],
E
