&title=GIRLS' LEGEND U
&artist=ウマ娘/スマートフォンゲーム「ウマ娘 プリティーダービー」OPテーマ
&first=0.66
&des=Ragna
&wholebpm=205
&demo_seek=74.7
&demo_len=22.5
&des_5=Ragna
&des_6=Ragna
&lv_5=12+
&lv_6=13
&inote_5=(121){2},,,,,,,(119){4}
1h[6:1]/8h[6:1],3h[6:1]/4h[6:1],6h[6:1]/5h[6:1],{12}8,1,8,
(115){4}7h[6:1]/2h[6:1],(105)2h[6:1]/4h[6:1],
(100)7h[6:1]/5h[6:1],(75){12}18,27,36,(94){4}4-1[16:5]/5-8[16:5],,,
(109)2bqq5[8:7]/7bpp4[8:7],,,,,,
(205){8}3-6[8:1]/4h[4:1],,,,7,78,,2,
21,,5/4-8[8:1],45,,,7h[4:1],,
6h[4:1],,5h[4:1],,4,,36,,
1,28,,7,86,,45,,
7-2[8:1]/8h[4:1],,,,3,34,,6,
65,,1/8-4[8:1],18,,,3h[4:1],,
2h[4:1],,1h[4:1],,8,,27,,
5,64,,3,24,,
1bs5[8:3]/8bz4[8:3],,,,,,,,
3b>4[16:7]/6,,,,,,,,
8z4[16:7]*s4[16:7],,,,,,,,
3b/6,,,1/8b,,7h[2:1],,5,
,2h[2:1],,4,,6h[2:1],,8,
,3h[2:1],,1,,6,5,,
7h[4:1]/4,,8,,2h[8:3]/5,,1,1V75[16:3],
,4,4w8[4:1],,,,,,
2h[4:1],,3h[4:1],,4h[4:1],,5,,
36,,8,17,,2,31,,
4qq4[16:5]/5pp5[16:5],,,,,,,,
3h[4:1]/4,,1b,,6h[4:1]/5,,8b,,
2/7b<8[16:7],,,,,,,,
4h[4:1],,5,,36,36,,2h[4:1]/1h[4:1],
,,,38,,7,8,,
6h[4:1],,5h[4:1],,8h[4:1],,1,2-5[8:1]/7-4[8:1],
,,,,3-1[8:1],,4,,
7h[4:1],,8,1^4[8:1]/6,,,,5h[4:1],
,4,63,,2/7-3[8:1],,8,,
1^4[8:1],,4,,8^5[8:1],,5,,
3-1[8:1],,4-8[8:1],,2b,,,3-5[8:1],
5,,,6-4[8:1],4,,,2-5[8:1],
,8-4[8:1],,1,,,,7-1[8:1],
1,,,2-8[8:1],8,,,6-1[8:1],
,4-8[8:1],,5b,,,,,
7pp6[8:11],,,,,,5,5,
,,3,,1,1,,,
2qq7[8:11]/5,,,,,,,,
,,,,6,,5,,
6qq7[8:11],,,,,,8,8,
,,2,,4,4,,,
3pp6[8:11]/8,,,,,,,,
,,,,7,,8,,
7h[4:1]/8h[4:1],,,1h[4:1]/6h[4:1],,,25,,
1h[4:1]/2h[4:1],,,8h[4:1]/3h[4:1],,,7/4^1[8:1],,
,6,8,6,2,8,2,8,
3,5,4,3/6qq8[8:3],,,,,
,2,1,2,7,8,7,3,
5,4,36,,2,8,1,,
2b>8[4:5]/7b<1[4:5],,,,,,,,
,,,,,,,,
2/7^2[4:5],,,,,,,,
,,,,,,,,
3b/6b,,7,8,8,6,5,5,
8,1,1,6-1[8:1],,2-5[8:1],,8-4[8:1],
,,3,5,5,1,8,8,
5,6,6,3bV14[4:1]*pp4[4:1],,,,,
,,6h[4:1],5,5,3h[4:1],4,4,
7h[4:1],5,5,2h[4:1],4,4,8,1,
27,,36,4,5,36,5,4,
3-6[8:1]/6,,7h[4:1],,8,1b-5[8:1]/6b-1[8:1],,,
,,7,4,4,5,2,2,
8,,1pp4[8:3]/7qq4[8:3],17,,,,,
,,6,5,5,,78,,
12,,4qq1[8:3]/5pp8[8:3],45,,,,,
,,7h[4:1],8,8,2h[4:1],1,1,
6h[4:1],8,8,3h[4:1],1,1,5,4,
36,2,1,38,7,8,16,52,
4-7[8:1]/3-8[8:1],,,,16,,,,
84,,2pp5[4:5]/6bpp1[4:5],2b/6,,,,,
,,,,,,,,
,,3-6[8:1]/4h[4:1],,,,7,86,
,2,13,,4b/5,4-1[8:5]/5b-8[8:5],,,
,,,,,,,,
E
&inote_6=(121){12}
1,8,1,2>7[4:1]/7,,,,,,
,8,1,8h[4:1],,,3h[4:1],,,
5,4,5,6<4[3:1]/3>5[3:1],,,,,,
,,,,4,5,2,,2,7,8,7,2,1,2,
(119)3pp1[8:3]/8h[6:1],,,7h[6:1],,,6h[6:1],,,7,8,7,
(115)1h[6:1]/6qq8[8:3],,,(105)2h[6:1],,,(100)3h[6:1],,,(75)21,38,47,
(94)5h[12:1]/6,4h[12:1],3h[12:1],2h[12:1],1h[12:1],8h[12:1],
7h[12:1],6h[12:1],5h[12:1],
(109){4}4b>5[8:7],,,,,,(205){8}
4-1[8:1]/5-8[8:1],,45,,2,13,,7,
86,,4-1[8:1]/5-8[8:1],45,,,7-4[8:1],,
2-5[8:1],,6-1[8:1],,4>8[4:1],4,8<4[4:1],,
4>8[4:1],,8<4[4:1],,,,,,
1-4[8:1]/8-5[8:1],,18,,6,75,,3,
24,,1-4[8:1]/8-5[8:1],18,,,3-8[8:1],,
6-1[8:1],,2-5[8:1],,8<4[4:1],8,4>8[4:1],,
8<4[4:1],,4>5[8:3],,,,,4bz8[8:3],
,,,,,,{16}15,6,7,8,1,2,3,4,15,8,7,6,5,4,3,2,
{8}1bpp8[8:3]/5bpp4[8:3],,,,,,,,
1b/5b,,,3b/7b,,1,2,31,
,8,7,86,,4,3,24,
,5,6,75,8,1,27,,
4-8[8:1],,43,,5-1[8:1],,56,7-4[8:1],
,3,2,1-5[8:1],,6b,7b,8b,
4-8[8:1],,7-3[8:1],,1-5[8:1],,8V24[4:1],8,
4V68[4:1],,8V24[4:1],,4V68[4:1],,,,
1bpp5[32:13]*qq5[32:13],,,,,,,,
8b/4^1[8:1],,5b,,8b/4^1[8:1],,5b,,
{16}8b/4b,7,6,5,4,3,2,1,84,5,6,7,8,1,2,3,
{8}4-8[8:1]/8,,6h[4:1],,1,27,,8-4[8:1]/4,
,3,2,1-5[8:1]/5,,6,7,8,
4^1[8:1],,7^4[8:1],,2^7[8:1],,5qq8[8:3],5,
,,,,1b^4[8:1]*^6[8:1],,1b,,
5V73[4:1],3,2,1V35[16:3],,,,6V84[4:1],
,4,3,2,1-4[8:1]*-6[8:1],,1,,
7-4[8:1],,3-8[8:1],,6-1[8:1],,2-5[8:1],,
8b-4[8:1],,8b^3[8:1]*^5[8:1],,8b,,,74,
7h[4:1]/4h[4:1],,,26,2h[4:1]/6h[4:1],,,1-3[12:1]/8-6[12:1],
,1-5[8:1]/8-4[8:1],,18,,,,83,
8h[4:1]/3h[4:1],,,26,2h[4:1]/6h[4:1],,,5-7[12:1]/4-2[12:1],
,5-1[8:1]/4-8[8:1],,4b/5b,,,,,
2qq7[8:13]/7,,,,,,,,
,,,,,,,,
,6,5,6,,3,4,3,
,7,8,7,1h[4:1],,8,,
7pp2[8:13]/2,,,,,,,,
,,,,,,,,
,3,4,3,,6,5,6,
,2,1,2,3h[4:1]/8h[4:1],,,,
1h[4:1]/5h[4:1],,,7h[4:1]/4h[4:1],,,18,,
2h[4:1]/4h[4:1],,,7h[4:1]/5h[4:1],,,18,,
24,3,64,5,24,3,64,5,
34,2,65,7,34,2,65,7,
82,4,17,5,82,4,17,5,
18,2,34,5,64,7,18,,
75,6,5,24,3,4,85,7,
6,15,2,3,84,6,15,3,
8/4-1[2:3],,,,6b,,,,
7b,,,,8b,,,,
2b/7b,,1-5[8:1],8,1,7-4[8:1],8,7,
2-5[8:1],1,2,8-4[8:1],,8>4[8:1]*<4[8:1],,8b,
,,6-1[8:1],5,6,3-8[8:1],4,3,
5-1[8:1],4,5,3bpp4[4:1]*V14[4:1],,3b,,,
,,6-1[8:1],5,6,3-8[8:1],4,3,
6-1[8:1],5,6,3-8[8:1],4,3,6,5,
7b/4,,18,2,34,5,64,7,
1b-5[8:1]/8b-4[8:1],,1b/8b,,3b-8[8:1]/6b-1[8:1],3b/6b,,,
27,,35,4,75,6,35,4,
7b-3[8:1]/5,,7,1bq8[8:1],,,,,
27,,64,5,24,3,64,5,
2b-6[8:1]/4,,2,8bV64[16:3],,,,,
36,,2-5[8:1],1,2,7-4[8:1],8,7,
2-5[8:1],1,2,7-4[8:1],8,7,1-5[8:1],8-4[8:1],
1-3[12:1],8-6[12:1],1-5[8:1],8-4[8:1],1-3[12:1],8-6[12:1],1-5[8:1],8,
1b,,,,4-8[8:1]/5-1[8:1],,,,
2b/7b,,4b<4[4:5]/5b>5[4:5],4b/5b,,,,,
,,,,,,,,
,,4-1[8:1]/5-8[8:1],,45,,2,84,
,7,15,,2b/6b,8bqq5[8:5]/4bqq1[8:5],,,
,,,,,,,,
E
