&title=烈華RESONANCE
&artist=REDALiCE vs Kobaryo
&first=0.065
&des=嗷嗷嗷哭
&des_5=
&lv_5=14
&inote_5=(240){4},,,,,,,,{2}1b/8b,
{4}3b,5/7h[4:1],
,{8}3,7,{4}1-5[8:1],1/5<4[1:1],
,5,6,7,
8h[4:1],{8}1,8,{4}1,7,
{2}1b/5b,{4}6b,4/2h[4:1],
,{8}6,2,{4}8-4[8:1],8/4>5[1:1],
,4,3,2,
1h[4:1],{16}8,7,6,5,4,3,2,1,8,7,6,5,
{8}8b-2-6[4:1],{4},{8}7,{4}7,5-7-3[4:1],
,{8}4,,{4}4,2-4-8[4:1],
,{8}7,,{4}7,1-3[8:1],
1-7[8:1],1-5[8:1],{2}1b,
{8}6,6,3,35,4,4,57,7,
2,2,5,53,4,46,{4}7b,
{8}8/1h[8:1],8,2/7h[8:1],2,6/3h[8:1],6,4,4,
5,{16}3,6,3,6,2,7,2,7,1-5[8:1],8,1,8,{8}1<1[4:5],
{4}6h[2:1],{2},{4}8,
7,6,5,4b/3b,
7h[4:1]/2-5[8:1],2,6h[4:1]/1-5[8:1],1,
7h[4:1]/2>5[8:1],2,6h[4:1]/1q5[8:1],1,
2h[4:1]/7-4[8:1],7,3h[4:1]/8-4[8:1],8,
2h[4:1]/7<4[8:1],7,3h[16:3]/8bw4[8:1],8b,
2/6h[4:1],{16}3,4,{8}5,{4}1/7h[4:1],{16}2,3,{8}4,
{1}7qq4[8:3]/4qq1[8:3],
{4}7/3h[4:1],{16}6,5,{8}4,{4}8/2h[4:1],{16}7,6,{8}5,
{1}2pp5[8:3]/5pp8[8:3],
{16}2,1,{8}2-5[8:1],5-3-8[4:1],2,,7,,5b,
{16}2,3,{8}4-8[8:1],8-2-6[4:1],4,,5,,7b,
,4,4,2,2,8,8,6,
{4}6b/3b>1[8:1],3b/5b<7[8:1],{8}5b/8b-4[8:1],8b,,,7-4[8:1],
4-6-1[4:1],7,,2,,4b,
{16}7,6,{8}5-1[8:1],1-7-3[4:1],5,,4,,{4},2h[8:1],
1h[8:1]/3h[8:1],1h[8:1]/3h[8:1],1h[8:1]/3h[8:1],
8-6-4[4:1]/4-2-8[4:1],4v6[4:1]/8v2[4:1],{2},{16}1,
2,{8}3h[8:1],{16}8,7,{8}6h[8:1],{16}2,3,{8}4h[8:1],{16}7,6,{8}5h[8:1],
1b,{4},{8}3,{4}3,2/4h[4:1],
{8},3,{4}3,4,5/7h[4:1],
,{8}6,5/4,{4}5,4/2h[4:1],
{8}4,{4},{8}4,{4}5,{8}4,5,
3/6h[4:1],{4},{8}2,{4}2,1/8h[4:1],
{8},3,{4}3,4,5/6,
{8}7,7,,5/3,{4}3,{8}4/6,6,
{16}4,5,{8}4,6,4,7,3,8,2,
{2}1qq4[2:1],{4}3h[16:3],2qq5[2:1]*qq5[2:1],
8h[8:1],7h[8:1],{2}6h[8:1],
3pp6[2:1],{4}8h[8:1],7pp2[2:1]*pp2[2:1],
5h[8:1],4h[8:1],{2}3h[8:1],
{6}1/2,3/8,4/7,7/8,1/6,2/5,
{8}1/8,1/8,3/6,3/6,{16}4,5,3,6,2,7,1,8,
{4}1-5[8:1],1b/7b-3[8:1],7b/1b-3-5[4:1],1,
7,7w3[16:3],{2},{1}5b/1b>7[4:11],
8h[8:1],
2h[8:1],
4b,
4h[8:1]/8<2[4:11],
2h[8:1],
8h[8:1],
6b,
{4}1>4[4:3],8h[8:1],7h[8:1],6h[8:1],
5<8[4:3],4h[8:1],3h[8:1],2h[8:1],
3-1-5[4:3],8h[8:1],7h[8:1],6h[8:1],
7-5-1[4:3],4h[8:1],3h[8:1],2h[8:1],
8qq5[4:3],1,2,3,
4qq1[4:3],5,6,7,
{1}8qq4[2:1]*pp4[2:1],
{8}3/6,4,5,2/7,8,1,{4}6,
7/2h[4:1],{8}5,4,{4}2/7h[4:1],{8}4,5,
{4}2h[8:1]/7h[8:1],{8}1/8,1h[4:1]/8h[4:1],{2},{4}7h[16:1]/2b-6[4:1],
6-4-1[16:7],7h[16:1],1s5[8:2],
{2}6b,{8}1/8,2,3,4/5,
{4}6/3h[4:1],{8}8,1,{4}3/6h[4:1],{8}1,8,
{4}3h[16:3]/6h[16:3],{8}4/5,4h[8:1]/5h[8:1],{4},{16}2,7,{8}2,
{4}6/1>3[8:1],8,1/7<5[8:1],8,
{8}1h[4:1]/7h[4:1],{4},{8}8,{2}1b/7b,
{4}4/6h[1:1],4,3,3,
2-6[16:3],6s2[4:1],{2},{4}5/3h[8:3],
5,6/4h[8:3],6,
7b-3[16:3],3b<7[16:3],1b-4[8:1]*-6[8:1],1b,
{8}7,7,7,7,3,3,3,3,
5/6h[8:3],5,5,5,5/4h[8:3],5,5,5,
{16}3,6,3,6,2,7,2,7,1,8,2,7,1,8,2,7,
1,2,3,4,2,3,4,5,3,4,5,6,7-5-1[4:1],8,1,2,
{4}7b/3h[4:1],{2},{8}7/3,6/4,
{4}5b-1[8:1],1bw5[16:3],{2},{4}6/1-5[8:1],
{8}1/8,7,{4}6/1q5[8:1],{8}1/8,7,
{4}6/1>5[8:1],{8}1/8,7q3[8:1]*p3[8:1],6,7,{4},{16}2,
4,2,4,{8},1b/5b,,6b-2[8:1]/8b-4[8:1],,6b/8b>6[4:3],
{2},{8}6,6,7,7,
{4}3/8-4[8:1],{8}8/1,2,{4}3/8p4[8:1],{8}8/1,2,
{4}3/8<4[8:1],{8}8/1,2,{16}3,2,1,8,7,6,5,4,
{4}3-5[8:1],3/7-1[8:1],7/2-6[16:3],2/8w4[16:3],
{2},{4}2b/6b,8,
{8}1>4[8:1],8<5[8:1],1,8,1-5[8:1],8-4[8:1],1,8,{16}1<6[8:1],2,3,4,1b,,,,2<7[8:1],3,4,5,2b,,,,
{16}3,5,3,5,{8},2b/6b,,3b-7[8:1]/5b-1[8:1],,5b/3b>5[4:3],
{2},{8}3,3,2,2,
{8}1-5[8:1],8-4[8:1],1,8,1>4[8:1],8<5[8:1],1,8,
{16}1v4[8:1],,8v5[8:1],,1,,8,,,,,,1,2,3,4,
{4}6b-2[8:1],6b/3b-6[8:1],3b/7b-2[16:3],7b/4bw8[16:3],
{2},{4}7b/3b,,
{2}1b-3-5[1:1],3-5-7[1:1],
8,1,
8b-6-4[1:1],6-4-2[1:1],
1,8,
1>7[2:3],4,
8,1,
{1}6s2[2:1],
{16}1/7,2,3,4,5,6,7,8,1b,2,3,4,5,6,7,8,{4}
1h[4:1],{8}5,4,{4}2/7h[4:1],{8}4,5,
{4}8/1h[16:3],{8}2/7,1-5[8:1]/8-4[8:1],,1/8,{4},7h[16:1]/2b-5[8:1],
5-3-8[16:5],{8}6h[16:1],8w4[8:1],{4},,,{8}4/5,
3,2,1/8,
{4}7/2h[4:1],{8}8,1,{4}3/6h[4:1],{8}1,8,
{4}5/4h[16:3],{8}3/6,4h[8:1]/5h[4:1],{4},{16}3,6,{8}3,
{4}2/7,2/7,2/7,2/7,
{16}1,8,2,7,1-5[8:1],8,2,7,{2}1b,
{4}8/2-5[8:1],
{8}2/6,7,{4}8/2>5[8:1],{8}2/6,7,
{4}8/1-5[8:1],{8}1/6,7q3[8:1]*p3[8:1],6,7,{4},{16}2,
4,2,4,{8},1b/5b,,2bv4[8:1]/6bv8[8:1],,6b<4[4:3]/2b,
{2},{8}5,5,6,6,
{4}1/7-4[8:1],{8}7/3,2,{4}1/7<4[8:1],{8}7/3,2,
{4}1/8-4[8:1],{8}8/1,2,{16}3,2,1,8,7,6,5,4,
{4}3b-1[8:1],3b/7b-5[8:1],7b/2b-6[16:3],2b/8bw4[16:3],
{2},{4}2b/6b,8,
{8}1-5[8:1],1,7-3[8:1]/1,7,7/2-6[8:1],2,2/8-4[8:1],8,{16}8/1<6[8:1],2,3,,1b,,,,2<7[8:1],3,4,,2b,,,,
{16}3,5,2,6,,,3b/7b,,,,4bv2[8:1]/8bv6[8:1],,,,4b/8b>6[4:3],,,,,,,,,,6,,6,,7,,7,,
{8}8-4[8:1],8,2-6[8:1]/8,2,2/7-3[8:1],7,7/1-5[8:1],1,,,7,6,5h[4:1],,,
{32}6,7,8,1,2,3,4,,
{16},,5,6,4,7,4,7,3,8,3,8,2-6[8:1],1,2,1,2-4-6[8:3]*-8-6[8:3],,,,,,,,,,,,,,
{8}1s5[16:9]/5s1[16:9],,,,,,,,,,34,,56,,1,7,
{24}8/2,3,4,,,,1/7,6,5,,,,1/7,2,3,,,,28,7,6,,,,
{32}1/5,2,3,4,5,6,7,8,1w5[8:1],2,3,4,5,6,7,8,1b,
