&title=おにさんこちら
&artist=豚乙女
&first=0.025
&des_1=カザリア
&des_2=カザリア
&des_3=カザリア
&des_4=カザリア
&des_5=カザリア
&lv_5=13
&des_6=カザリア
&des_7=カザリア
&des=カザリア
&inote_5=(180)
{4},,,,
{4}3h[4:1],4h[4:1],3h[4:1],4h[4:1],
{4}3h[4:1],2h[4:1],1,,
{4}6h[4:1],5h[4:1],4h[4:1],3h[4:1],
{4}6h[4:1],7h[4:1],8,,
{12}2b,,3,5,,5,4,,4,6,,6,
{12}4,,,57,,5/7h[3:1],,,,,,3h[3:1],
{4},4,25,25,
{12}17,,17,,,6/5h[3:1],,,,,,,
{12}7,,6,4,,4,5,,5,3,,3,
{12}5,,24,,,24,,,1,,,2,
{12}4,,4,3,,3,5,,5,3,,56,
{12},,35,35,,,2b/7b,,,,,,
{4}6h[4:1]/5,5,5h[4:1]/4,4,
{4}6h[4:1]/5,5,5h[4:1]/4,4,
{12}34,,6,4,,3,4,,6,4,,3,
{4}4<1[2:1],3,3,3,
{4}2h[4:1]/1,1,1h[4:1]/8,8,
{4}2h[4:1]/1,1,1h[4:1]/8,8,
{12}78,,2,8,,7,8,,2,8,,7,
{4}8>5[2:1],7,7,7,
{4}6-8[8:1]/5,5,5-1[8:1]/4,4,
{4}6-8[8:1]/5,5,5-1[8:1]/4,4,
{12}34,,6,5,,3,5,,6,4,,3,
{4}4pp1[2:1],3,3,3,
{4}2-4[8:1]/1,1,1-5[8:1]/8,8,
{4}2-4[8:1]/1,1,1-5[8:1]/8,8,
{12}78,,2,1,,7,1,,2,8,,7,
{4}8pp5[2:1],7,7,7,
{4}6<3[2:1],5,4>6[2:1],5,
{12}6,,,5,,,4,,7,5,,4,
{4}6<3[2:1],5,4>6[2:1],5,
{12}6,,,5,,,4,,3,5,,7,
{4}3>6[2:1],4,5<3[2:1],4,
{12}3,,,4,,,5,,2,4,,5,
{4}3>6[2:1],4,5<3[2:1],4,
{12}3,,,4,,,5,,6,4,,2,
{12}6p4[3:1],,,,,,3,,2,4,,6,
{12}5,,2,4,,6,5,,37,,,,
{12}2,,2,4,,4,5,,5,7,,7,
{12}1,,1,3,,3,4z8[4:1],,,,,,
{12}5,6,7,18,2,3,46,,7,5,,34,
{12}1b^4[8:1]/6b,,,17,,6,5^2[8:1],,,75,,8,
{12}1^4[8:1],,,17,,6,5^2[8:1],,,75,,8,
{12}1-5[8:1],,,17,,6,4-1[8:1],,,4/7>6[8:3],,,
{12}7,,,,,,1,7,2,6,3,5,
{12}4-7[8:1],,,24,,1,1-6[8:1],,,13,,4,
{12}4,,56,56,,34,2-8[8:1]/6,,,2/7-5[8:1],,,
{12}7/2-4[8:1],,,2/7-1[8:1],,,27,,3,4,,,
{1}1bpp4[2:1]*qq6[2:1]/6b,
{12}8^5[8:1]/2,,,82,,3,4^7[8:1],,,24,,1,
{12}8^5[8:1],,,82,,3,4^7[8:1],,,24,,1,
{12}8-4[8:1],,,28,,3,5-8[8:1],,,5/2<3[8:3],,,
{12}2,,,,,,8,2,7,3,6,4,
{12}5-2[8:1],,,75,,8,8-3[8:1],,,86,,5,
{12}4,,56,56,,34,2-8[8:1]/6,,,2/7-5[8:1],,,
{12}7/2-4[8:1],,,2/7-1[8:1],,,27,,3,4,,,
{1}1b>7[2:1]/6b>8[2:1],
{4}8-6[8:1],8-3[8:1]/2,8-6[8:1]/5,8-3[8:1]/2,
{4}8-6[8:1]/5,8-3[8:1]/2,85,,
{4}1-3[8:1],1-6[8:1]/7-5[8:1],1-3[8:1]/7,1-6[8:1]/7-5[8:1],
{4}1-3[8:1]/7,1-6[8:1]/7-5[8:1],17,,
{12}7b/2b,,6,4,,3,4,,2,8,,7,
{12}5,,,43,,6/2^5[8:1],,,,,,6^1[8:1],
{4},5,74,51,
{12}36,,2-5[8:1]/4,,,21,,,,74,,,
{12}3,4,3,6,5,6,2,4,3,7,5,6,
{12}2,,2,4,,4,5,,4/7-4[8:1],,,17,
{12}2,,6,5,,3,5,,8,2,,37,
{12},,37,1-4[8:1]/5-8[8:1],,,1b/5b,,,,,,
{1}7qq4[2:7]/2qq5[2:7],
E
