&title=Mirror Temple (Mirror Magic Mix)
&artist=Lena Raine / 2 Mello
&first=0
&des=Mix Master Theo
&lv_5=13
&inote_5=(99){4},,,,
{8}2-5[12:1]/7,,2/8,,
2-6[12:1]/7,6,2/5,,
2-5[12:1]/7,,2/8,,
2-6[12:1]/7,6,2/5^8[12:1],,
2-5[12:1],,2/8,,
4-8[12:1]/6,3,2/4,,
2-5[12:1]/7,,2/8,,
4-8[12:1]/6,3,2/4^7[12:1],,
1-5[12:1],,3/1,,
6-1[12:1]/4-8[12:1],5,6/4,,
1-5[12:1]/7,,3/1,,
6-1[12:1]/4-8[12:1],5,6/4^1[12:1],,
6-1[12:1],,6/2,,
7-3[12:1]/3-7[12:1],4,7/3,,
6-1[12:1]/1,,6/2,,
7-3[12:1]/3-7[12:1],4,7^4[12:1]/3,,
{8}2-5[12:1],1,2-7[12:1]/6,7,
5,4,1>4[12:1]/5,,
7-4[12:1],8,7-2[12:1]/3,2,
4,5,8/4^1[12:1],,
8-5[12:1],7,8-3[12:1]/2,1,
4,5,2/6^1[12:1],,
4-1[12:1],3,4-7[12:1]/6,5,
8,1,6/2^5[12:1],,
{24}7-4[12:1],,,7,,3,7-2[12:1],,,2,,,
4,,,5,,,8<5[12:1]/4,,,3/7,,,
2-5[12:1],,,2,,6,2-7[12:1],,,7,,,
5,,,4,,,1/5^8[12:1],,,2/6,,,
{8}3-6[12:1],4,7-3[12:1],8,2-7[12:1],1,6,8,
{24}2,,2,3,,3,4,,4,5,,5,
6h[8:1],,,8,,,2,,5,4,,7,
{8}8-4[12:1]/3b,2,1/8,{24}3,,7,
{8}2-5[12:1],4,6/2,7,
8-4[12:1]/3,2/7,1/8,{24}3,,7,
{8}2-5[12:1],4/1,6^1[12:1]/2,7,
3-7[12:1],4,3/6,{24}5,,1,
{8}4-8[12:1],2,3/4,4,
3-7[12:1]/8,7/2,3/6,{24}5,,1,
{8}4-8[12:1],2/5,3/4^1[12:1],4,
8-4[12:1],6,5/8,{24}7,,3,
{8}8-4[12:1],5,4/8,3,
8-4[12:1]/2,6/1,5/8,{24}7,,3,
{8}8-4[12:1],5/7,3^6[12:1]/8,2,
1-6[12:1],2,3/1,{24}4,,7,
{8}3-7[12:1],4,3/5,6,
1-6[12:1]/8,2,3/1,{24}4,,7,
{8}3-7[12:1],4/2,3/5^8[12:1],6,
{8}1-6[12:1],2,4-8[12:1],3,
1-5[12:1],2,4-7[12:1],3,
1-4[12:1],8,4-7[12:1],5,
1-5[12:1],8,5-2[12:1],6,
7-2[12:1],8,6-3[12:1],5,
7-4[12:1],8,6-2[12:1],5,
8-5[12:1],1,4-1[12:1],3,
7-4[12:1],8,4-8[12:1],3,
{24}1-6[12:1],,,3,,3,1-5[12:1],,,4,,4,
1^4[12:1],,,3,,6,1,,,7,,,
8-3[12:1]/3,,,6,,6,8-4[12:1],,,5,,5,
8^5[12:1],,,6,,3,8,,,2,,,
1/5,,4,1-5[12:1],,5-2[12:1],1,,6,1,,,
7,,3,7-4[12:1],,4-8[12:1],7,,5,7,,,
1^6[12:1],2,3,4-8[12:1],,,1^4[12:1],,,4,,,
{8}6h[8:2],,2-5[12:1],,
{24}2b/6,,,7,,,
8/3,,2,7,,1,
{8}6-3[12:1],,2-5[12:1],,
{24}6,,,7,,,
8/3,,2,7,,1,
{8}6-3[12:1],3,1-5[12:1],,
{24}4,,,3,,,
6/2,,1,5,,8,
{8}4-7[12:1],,1-5[12:1],,
{24}4,,,3,,,
6/2,,1,5,,8,
{8}4-7[12:1],2,3^6[12:1],,
{24}8,,,7,,,
6/3,,2,5,,1,
{8}4-8[12:1],,3^6[12:1],,
{24}8,,,7,,,
6/3,,2,5,,1,
{8}4-8[12:1],2,1^6[12:1],,
{24}3,,,4,,,
6/5,,7,4,,8,
{8}3-8[12:1],,1^6[12:1],,
{24}3,,,4,,,
6/5,,7,4,,8,
{8}3-8[12:1],5,4^7[12:1],,
{8}4-8[12:1]/1^4[12:1],,1^6[12:1]/4,,
3,2,1/5^2[12:1],,
8-4[12:1]/5^8[12:1],,5^2[12:1]/8,,
7,6,5^2[12:1]/1-6[12:1],,
1-4[12:1]/5,,1/7-3[12:1],,
2,1,8^3[12:1]/4-7[12:1],,
4-1[12:1]/8,,4/6-2[12:1],,
3,4,5^2[12:1]/1^6[12:1],,
1-5[12:1]/5,,1/8^3[12:1],,
7-3[12:1],6,5^2[12:1],,
1-5[12:1]/5,,1/8^3[12:1],,
7-3[12:1],6,5^2[12:1],,
1-4[12:1]/5,8,7^2[12:1],6,
5-8[12:1],4,3^6[12:1],2,
{24}1,,1,7,,7,5,,5,3,,3,
1h[8:1],,,7,,,5,,3,1,,3^6[24:25],
{1}6^1[24:24],,E
