&title=可不ちゃんのカレーうどん狂騒曲
&artist=南ノ南,可不,ずんだもん
&first=-1.12
&des_5=escape from カレーうどん
&lv_5=13+
&des=escape from カレーうどん
&inote_5=(201){4},,,,,,,,8-5[4:1],
8,1-4[4:1],1,
{8}6,6,3,3,6,5,4,3,
{4}1-4[4:1],1,8-5[4:1],8,
{8}3,3,6,6,{4}7b/1b,5b/3b,
8-4[4:1],8,1-5[4:1],1,
{8}6,6,3,3,6,5,4,3,
{4}1-5[4:1],1,8-4[4:1],8,
{8},3,3h[8:1],4h[8:3],{4}2,Cf,
7v4[8:1],7/2v5[8:1],2/8<5[8:1],8/1>4[8:1],
1/7-2[8:1],7/3-6[8:1],3/1-5[8:1],1/8,
2v5[8:1],2/7v4[8:1],7/1>4[8:1],1/8<5[8:1],
8/2-7[8:1],2/6-3[8:1],6/8-4[8:1],8/1,
3v8[8:1],3/6v1[8:1],6/4>1[8:1],4/5<8[8:1],
5/3-6[8:1],3/7-2[8:1],7/5-1[8:1],5/4,
6v1[8:1],6/3v8[8:1],3/5<8[8:1],5/4>1[8:1],
4/6-3[8:1],6/2-7[8:1],2/4-8[8:1],4/5,
B1/B2h[2:15],E2,B1,E2,
B1,E2,B1,E2,
B1,E2,B1,E2,
B1,E2,B1,E2,
B1/A6h[2:7],E2,B1/E6h[1:3],E2,
B1/B6h[2:5],E2,B1,E2,
B1/E7h[2:3],E2,B1,E2,
B1,E2,{2}B1,
{4}8h[4:1]/1-5[8:1],1,7h[4:1]/1-3[8:1],1,
8h[4:1]/1-5[8:1],1,7h[4:1]/1-3[8:1],1,
8h[4:1]/1-5[8:1],1,7h[4:1]/1-3[8:1],1,
8h[4:1]/1-5[8:1],1,7h[4:1]/1-3[8:1],1,
{8}2/E6h[2:3],2,{4}2,{8}3/B6h[1:1],3,{4}3,
{8}4/B5h[2:1],4,4,4,{4}4-2[8:1],4,
{8}8/E4h[2:1],8,7,7,6,6h[8:1],,1/E6h[8:5],
1,2,2,3,{4}3,4b/5b,
B2/E3h[4:15],A2,B2,A2,
B2,A2,B2,A2,
B2,A2,B2,A2,
B2,A2,B2,A2,
{8}E7/E6h[4:23],E7,{4}E7,{8}E7,E7,{4}E7,
{8}E7,E7,E7,E7,E7,E7,{4}E7,
{8}E3/E4h[4:15],E3,{4}E3,{8}E3,E3,{4}E3,
{8}E3,E3,E3,E3,E3,E3,{4}E3,
{8}E7/E3/E5h[4:7],E3/E7,{4}E3/E7,{8}E3/E7,E3/E7,{4}E3/E7,
{8}E3/E7,E3/E7,E3/E7,E3/E7,E3/E7,E3/E7,{4}E7/E3,
{8}E8,E1,E2,E3,E4,E5,E6,E7,
{4}2x-5[8:1],2/1-5[8:1],1/8-5[8:1],8,
{8}4xh[8:1],5xh[8:1],4xh[8:1],5xh[8:1],3xh[8:1],6xh[8:1],3xh[8:1],6,
7/1,7/1,5/3,5/3,7-4[8:1],7,2-5[8:1],2,
,,1h[4:1]/8-3[8:1],7,{4}8,{8}2h[4:1]/8-5[8:1],7,
{4}8,{8}3h[4:1]/8-4[8:1],7,{4}8,5/1,
{8}4xh[1:2]/5xh[16:1],6xh[16:1],5xh[16:1],6xh[16:1],5xh[16:1],6xh[16:1],5xh[16:1],6xh[16:1],
5xh[16:1],6xh[16:1],5xh[16:1],6xh[16:1],5xh[16:1],6xh[16:1],5xh[16:1],6xh[16:1],
{4}5x-2V41[8:3]*-8V61[8:3],5x,,2x-4[8:1]/8x-6[8:1],
2x-5[8:1]/8x-5[8:1],2x/8x,{8}1/7,1,8/2,8,
{4}7/4-2[8:1],2/4-6[8:1],6/4-2[8:1],2/4-6[8:1],
{8}4/6,8,8,2,2,6,6,4,
{4}4/5-7[8:1],7/5-3[8:1],3/5-7[8:1],7/5-3[8:1],
{8}5/3,1,1,7,{4}7x/8,3x/4,
2/5-7[8:1],7/5-3[8:1],3/5-7[8:1],7/5-3[8:1],
{8}5/3,1,1,7,7,3,3,5,
{4}5/4-2[8:1],2/4-6[8:1],6/4-2[8:1],2/4-6[8:1],
{8}4/6,8,8,2,{4}2,6,
6xq3[8:1],7x>2[8:1],6xq3[8:1],7x>2[8:1],
{8}7x,4,4,5,{16}5,A3,D4,A4,{4}Cf/D5,
B4h[4:23]/E4h[4:23],8,{16}8,,,8,,,{8}8,
,8,{4}8,8,8,
8,8,{16}8,,,8,,,{8}8,
,8,{4}8,8,8,
8,8,{16}8,,,8,,,{8}8,
,8,{4}8,8,7>2-6>3[8:5],
{8},,,,,,,E4h[4:1]/B4h[4:1]/B3h[4:1]/D4h[4:1]/A4h[4:1],
,,,,,2/C,2/C,2/C,
{4}7-4[8:1],3/7-2[8:1],{16}3/7-5[8:1],,,3,{8}7-2[8:1],3,
7-5[8:1],3,{4}3/7-2[8:1],3/7-5[8:1],3/7-2[8:1],
3/7-5[8:1],3/7-2[8:1],{16}3/7-5[8:1],,,3,{8}7-2[8:1],3,
3/7-5[8:1],3,{4}3/7-2[8:1],3/7-5[8:1],3/7-2[8:1],
3/7-5[8:1],3/7-2[8:1],{16}3/7-5[8:1],,,3,{8}7-2[8:1],3,
3/7-5[8:1],3,{4}3/7-2[8:1],3/7-5[8:1],7/3,
B3h[2:1],,,A3h[4:15]/E3h[4:15]/E4h[4:15],
,,{2}7h[2:1],
{4},,,7h[2:3],
,,,,,,{2}7h[4:7],
{4}A6,E6,B5,B4,
E4,A3,,,{1}6V84[2:1]/3V15[2:1],
7<2[2:1]*-2[2:1],
{4}4/5,3/6,2/7,1b/8b,
Cf,{16}8/7bx,6,5,4,{8}3x/1x,2x/8x,{16}7,1,7,1,
{8}7-4[8:1],7,2-5[8:1],2,6-8[8:1],6,3-1[8:1]*-5[8:1],3,
{4}3,{16}8/7bx,6,5,4,{8}3x/1x,2x/8x,{16}7,1,7,1,
{8}7-4[8:1],7,1,1,{16}1bx,2,3,4,8bx,7,6,5,
{4}Cf,{8}5v7[8:1]/3v1[8:1],3/5,,,8/2,8/2h[4:1],
,8,7h[8:1],5h[8:1],4h[8:1],2h[8:1],{16}3bx,4,5,6,
7xh[8:1],,,6,{8}7-3[8:1],7,2-6[8:1],2,,,7bx,
{16}7bx,6,5,2bx,3,4,{4}1/5,{16}8/7b,6,5,4,
2h[16:3],,,4h[16:3],,,{8}5h[16:3],{16},7h[16:3],,,2b,3,4,5,
7h[16:3],,,5h[16:3],,,{8}4h[8:1],{16}2b,3,4/7b,6,{4}5/1,
{16}5x/3x,,,6x/2x,,,{8}7x/1x,{16}4x/6x,,,7x/3x,,,{8}8x/2x,
1h[8:1],4,1h[8:1],5,{4}1h[4:1]/6-8[8:1],6-3[8:1],
6/2h[4:1],{8}4h[8:1],5h[8:1],7h[8:1],{16}2x,3x,{4}4xh[8:1]/7-1[8:1],
{8}7-5[8:1],2,7-3-7[4:1],4,7,2,4,5,
{4}7,{8}5,4,{16}2bx,3,4,5,{4}1-5[8:1]/8-6[8:1],
1-3[8:1]/8-4[8:1],8/1-5[8:1],1w5[8:1],1,
8-4[8:1],{8}1/8,2h[8:3],,,{4}5,
{8}2/6h[4:3],3,4,5h[8:3],,,,,6/4,
3,6/4,7V51[4:1],,7/5,4,3,
2/8,2/8,1/7,7/1,,,{4}E6/B5/B4/E4,
8>4[4:1],8/4V68[4:1],8p3[4:1],3V16[4:1],
6V42[4:1],2V85[4:1],5V31[4:1],1p4[4:1],
4V27[4:1],7V53[4:1],3>7[4:1],7<7[2:1],
,,3-6[8:1]*-8[8:1],3,
1-5[8:1],{8}8/1,7h[8:3],,,{4}4,
{8}7/3h[4:3],6,5,4h[8:3],,,,,{4}1<5[4:1],
1/5V31[4:1],1q6[4:1],6V83[4:1],
3V57[4:1],7V14[4:1],4V68[4:1],8q5[4:1],
5V72[4:1],2V46[4:1],6<2[4:1],2>2[2:1],
,,6-3[8:1]*-1[8:1],6,
2,2/4,3/5,4/6,
{1}5h[1:1]/7h[1:1],
{8},Cfh[8:5]/E7h[8:5]/E3h[8:5],,,,,,,3/5,
3/5,2/6,2/6,E5,E6,E7,E8,
2pp5[2:1],1,8,7,{4}6h[8:1],6-8[8:1]*-1[8:1],
6,2-4[8:1]*-5[8:1],2-7[8:1]*-8[8:1],2-6[8:1],
{8}4-8[8:1],4,1-5[8:1],1,7-3[8:1],7,{32},,,,,,,,B1,
B8,B7,B6,B5,B4,B3,B2,{4}Cf/B1,{8}6/4,6/4,7/3,7/3,
E5,E4,E3,E2,7qq4[2:1],8,1,2,
{4}3,2-8[8:1]*-4[8:1],{8}2,,,4/8,
{4}8p4[8:1]/4p8[8:1],8>3[8:1]/4<7[8:1],,Cf,
7v4[8:1],7/2v5[8:1],2/8<5[8:1],8/1>4[8:1],
1/7-2[8:1],7/3-6[8:1],3/1-5[8:1],1/8,
2v5[8:1],2/7v4[8:1],7/1>4[8:1],1/8<5[8:1],
8/2-7[8:1],2/6-3[8:1],6/8-4[8:1],8/1,
3v8[8:1],3/6v1[8:1],6/4>1[8:1],4/5<8[8:1],
5/3-6[8:1],3/7-2[8:1],7/5-1[8:1],5/4,
6v1[8:1],6/3v8[8:1],3/5<8[8:1],5/4>1[8:1],
4/6-3[8:1],6/2-7[8:1],2/4-8[8:1],4/5,
7-4[8:1],7b/2-5[8:1],2b/8<5[8:1],8b/1>4[8:1],
1b/7-2[8:1],7b/3-6[8:1],3b/1-5[8:1],8/1b,
2-5[8:1],2b/7-4[8:1],7b/1>4[8:1],1b/8<5[8:1],
8b/2-7[8:1],2b/6-3[8:1],6b/8-5[8:1],1/8b,
{8}4h[8:1],5,5h[8:1],3,3h[8:1],6,6h[8:1],2,
2h[8:1],7,7h[8:1],2,2h[8:1],8,8h[8:1],1,
{16}8,1,8,1,8,1,8,1,8,1,8,1,8,1,8,1,
{8}8-4[8:1],8,1-5[8:1],1,,,(50.25){4}8w4b[32:1],
{128}A8,B8,Cf,B5/B4/B3,{32}A5/D5/A4/D4/A3,
E
