&title=虚星人
&artist=金魚光線
&first=0
&des=Tail.R
&lv_5=13+
&inote_5=(125)
{1},
{4}4x,4x,4x>6b[4:1],A6f,
{16}8x-4[8:1],,4,4,,,3,,2-5[8:1],,5,5,,,7,,
{16}8-4[8:1],,4,4,,,3,,2-5[8:1]/1-5[8:1],,3,,,,,,
{16}7h[16:3]/8,,,3,,2,4,,3/4,,6,5,6,,3/7,,
{16}2h[4:1],,4,,4h[4:1],,6,,6h[4:1],,8,,8h[4:1],,1,,
{16}1-5[8:1],,5,5,,,6,,7-4[8:1],,4,,3,,2,,
{16}1-5[8:1],,5,5,,6,6,,7-4[8:1]/8-4[8:1],,6,,,,,,
{8}5h[4:1],8,6h[4:1],8,4x-7[8:1],,1x-5[8:1],,
{8}6bx>6b[2:1],,,,,Cf,,,
{8}3^6[8:1],,7,,6^3b[8:1],,1,1,
{8}3^6[8:1],,6,,6^3b[8:1],,2,2,
{8}3^6[8:1]/4,2,1,8,6^3b[8:1]/5,7,8,1,
{4}2/8-4b[8:1],3-8[8:1],6qq1b[4:1],,
{4}4-2[32:3],1-5[8:1],4-8b[8:1],7-5b[32:3],
{8}4-2[32:3],4,1-5[8:1],1,4-8b[8:1]*-7b[8:1],,,,
{8}1-3[32:3],1,6-8b[32:3],6,5-1b[8:1],,4V27[4:1],,
{8}6,6,5,5,8z4b[16:3],1bh[4:1]/7b,,,
{8}2-6[8:1],,8-4[8:1],,2-6[8:1],,4-8[8:1],4,
{8}2-6[8:1],,8-5[8:1],,2-6[8:1],2,4-1[8:1],4,
{8}2V46[8:1],2,8-4[8:1],8,2-5[8:1],2,6-4[32:3],6,
{4}1q5[8:1],7^4[8:1],3pp6[4:1],,
{8}8^3b[8:1],8^5[8:1],,,1-6b[8:1],1-4[8:1],,,
{8}8^5[8:1],7,1^4[8:1],2,8w4[8:1],,,,
{8}6h[1:1],E1,E2,E3,E4,E5,E6,E7,
{4}8b>8b[2:1],E6,E4,E2f,
{8},1,2pp4[4:1],3,4p7[32:7]*>8b[32:7],,,,
{8},8,7qq5[4:1],6,5q3[4:1]*<2b[4:1],,,,
{8},1/2,8^3[8:1],7,6-1[8:1],5,4v7[8:1],3,
{4}2-5[8:1],4-8[32:3],1-5[8:1],4-7[8:1],
{8},2,3q5[4:1],4,5qq3[32:7]*<2b[32:7],,,,
{8},7,6pp4[4:1],5,4qq5b[32:8]*>6[32:8],,,,
{8},8/7,1^6[8:1],2,3-8[8:1],4,5-1[8:1],6,
{16}7b,,7h[8:1],,3,4,3,6,5,6,4,5,3,6,4p5b[32:15]`4?v5[32:15],5,
{16}3,6,B4f,,,,,,,,,,,,,,
{16},,,,,,,,4x,,4x,,3x,4x,2x,2x,
{8}3bx/1bx-4b[8:1],2,1-6[8:1]/7,8,1-4b[8:1]/3,2,1-6[8:1]/7,8h[8:3],
{8}1x-4b[8:1],,1x-6[8:1],8,1-4b[8:1]/3,2,1-6[8:1]/7,8,
{8}1x-4b[8:1]/4,,1x-6[8:1]/6,,3/1-4b[8:1],2,1/7,8h[4:1],
{16}2,,2,,3,4,1,8,2-5b[8:1]/7,,3,4,2,,7,,
{8}2b/8b-3b[8:1],1,8-5[8:1]/6,7,8-3b[8:1]/2,1,8-5[8:1]/6,7h[8:3],
{8}8x-3b[8:1],,8x-5[8:1],7,8-3b[8:1]/2,1,8-5[8:1]/6,7h[4:1],
{8}8x-3b[8:1],,8x-5[8:1]/6x,7,2/8-3b[8:1],1,8-5[8:1]/6,7,
{8}8-3b[8:1]*-4b[8:1]/2,,8,,{16}1/7h[8:1],,5,6,4,5,3,4,
{8}2hb[2:1],,,,4h[2:1],,,,
{8}3h[8:1],2h[8:1],1h[8:1],2h[8:1],3h[4:1],,4h[4:1],,
{16}2h[2:1],,,,,,,,3h[2:1],,,,,,,,
{8}4h[4:1],,3h[4:1],,2h[8:1],4h[8:1],3h[8:1],2,
{8}3h[8:3],E5,,E5,3h[8:1],E5,2h[8:1],E5,
{8}4h[8:1],E5,3h[8:1],E5,2h[384:1],E5`4h[384:1],3h[384:1],E5`2h[384:1],
{8}3h[8:3],E5,,E5,4h[8:1],E5,2h[8:1],E5,
{8}3b-6b[2:1],,,,,,,,
{8}2-4[32:3],2,8-6[32:3],8,1-5[8:1],,1/5,,
{4}4V26[4:1],6V84[4:1],7,5,
{8}6<3[4:1],6,3p6b[16:3],3,4-8[8:1],,4,5,
{8}6V84[4:1],,4V26b[4:1],,3,,5,,
{8}3v8b[8:1],3,4<8b[8:1],4,2v5b[8:1],,2/1,,
{8}3V15b[4:1],,5V73b[4:1],,6,,4,,
{8}7^4[8:1],7,8v3b[8:1],8,7-4[8:1],,7/4,3,
{4}2>5[4:1],5^8b[4:1],8^3[4:1],3^6b[4:1],
{4}6x^1[4:1],1x^4b[4:1],4x^7[4:1],7x>3qq4b[2:1],
{4}5x,5x,{16}5hx[4:1],,,,{64}D7,A7,D8,A8,D1,A1,D2,A2,D3,A3,D4,A4,,,,,
{8}8bx^3b[8:1],1,8^5[8:1]/6,7,8^3b[8:1]/2,1,8^5[8:1]/6,7h[8:3],
{8}8x^3b[8:1],,8x^5[8:1],7,8^3b[8:1]/2,1,8^5[8:1]/6,7,
{8}8x^3b[8:1]/3,,8x^5[8:1]/5,,2/8^3b[8:1],1,8/6,7h[4:1],
{16}1,,1,,6,4,8,1,7v4[8:1]/3,,8,1,7,,2,,
{8}5bx/1bx^4b[8:1],2,1^6[8:1]/7,8,1^4b[8:1]/3,2,1^6[8:1]/7,8h[8:3],
{8}1x^4b[8:1],,1x^6[8:1],8,1^4b[8:1]/3,2,1^6[8:1]/7,8h[4:1],
{8}1x^4b[8:1],,1x^6[8:1]/7,8,3/1^4b[8:1],2,1/7,8h[4:1],
{8}2,2,3/7,3/7,{16}4,6,2,1,3,5,8,7,
{16}1b-5b[8:1]/6b,,2,,1/7^4[8:1],,8,,2q6b[8:1]/7,,1,1,8-4[8:1],,7,,
{16}8/3-8b[8:1],,2,2,5-1[8:1],,4,,3p7b[8:1]/5,,2,,6v1[8:1]/3,,5,,
{16}2-5b[8:1]/6,,3,3,8^3[8:1],,7,,8^5[8:1]/5,,4-8b[8:1],,8,,4,,
{16}6,,5/7,,1,8,2,4,3-6b[8:1]/5,,4,5,3,,7,,
{16}8b^5[8:1]/3b,,7,,8/2-6b[8:1],,1,,7v4[8:1]/2,,8,8,1q5b[8:1],,2,,
{16}1/6^1[8:1],,7,7,4-8b[8:1],,5,,6-2[8:1]/4,,5,,3^8b[8:1]/6,,4,,
{16}7-4[8:1]/3,,6,6,1^6b[8:1],,2,,1^4b[8:1]/4,,5-1[8:1],,1,,5,,
{16}3h[4:1],,6,,5,,2/4,,6/8,,2/1,,3,5,4,6,
{4}5b^2b[8:1]*-1b[8:1],5^8[8:1],1^4b[8:1]*-5b[8:1],1^6[8:1],
{4}5w1[8:1],5<4b[8:3],Cf,,
{16}1-5[8:1],,5,5,,6,6,,7v4[8:1],,4,4,,3,3,,
{16}1-5[8:1],,5,5,,6,6,,7v4[8:1],,8^3[8:1],,7,,8,,
{16}5h[8:1],,3,3,4,2,2,,6/4,,3,5,4,,6/2,,
{8}7/5,6,5/3,4,1/3,{16}2,2h[16:3],1,,{8}1,
{16}8-4[8:1],,4,4,,3,3,,2v5[8:1],,5,,6,,7,,
{16}8-4[8:1],,4,4,,3,3,,2v5[8:1],,1^6[8:1],,2,,1,,
{8}3h[8:1],1,4/5,8,6x-2[8:1]/5,,1x-5[8:1],,
{8}8bx^3b[8:1]*^5b[8:1],,,,{16}2/6,,7,1,6,2,7,3,
{2}6bV84b[4:1],2bq3[4:1],
{1}8bp5-2[4:7]*-3q7-2[4:7],
E
