&title=霖が哭く
&artist=Power Of Nature
&first=0
&des=ネギラメン
&lv_5=14+
&lv_6=14
&inote_5=(154)
{1},{4},,,{16}2,6,3,5h[16:25],{2}1>1[1:1],,,{4}1b
,
{8}2-4[16:1]/8,1,{16}2-6[16:1],5,,2,7-5[12:1]*-3[12:1],,8,,7,,,
{8}2>4[12:1]/4,15,{16}2,8p4[12:1],,13,,8,2,,8,
{8}7-5[16:1]/1,8,{16}7-3[16:1],4,,7,2-4[12:1]*-6[12:1],,1,,2,,,
{8}7<5[12:1]/5,84,{16}7,1q5[12:1],,86,,1,7,,1,
28,7,3,7,3,6,2,6,2,6,1,5,1,2b>5[8:1]/8b<5[8:1],,,,,,,,5b,{8},,,
7qq4[16:5]/3,,,{16},1,,1,,7,8-4[12:1],1,{8}2-5[12:1],
8,2,{16}7<4[16:1],8,,71,,,2,1,3,8,1,,
27,,3>8[16:1],4,,35,,7,6,5,4>1[12:1],,28,,4,5,,78,,,
1b/6,,7b/3,,2b/5,,3,4,,7,8,,5,4,,
2,1,2,4,3,5,4,6,,5b/2,,3b/7,,6b/1-5[12:1],,8/2b,,
1/7b,,6,4,7,3,5,2,2,4,3,5,
46,,3,5,4,6,37,,1,28,,7,5,6,1,4,
3,,2q6[12:1],,18,,2,7,,8p4[12:1],,12,,8,3,,2<7[12:1],,18,,
2,6,,15,,2,4,3,8,5,6,,27,,6<1[16:1],5,,64,,2,3,4,5<8[12:1],,71,,5,4,,21,,,
8b/3,,2b/6,,7b/4,,6,5,,2,1,,4,5,,
7,8,7,5,6,4,5,3,,4b/7,,6b/2,,3b/8-4[12:1],,1/7b,,
8/2b,,3<6[12:1],5,,5,3,,7,8,,2,1,3,6>8[16:3],57,,,3h[16:3],,,,,7b/4,,2b/5,,8b,
1/7,,6>3[12:1],4,,4,6,,2,1,,7,8,6,1,8,2>4[16:1],4<7[12:1],1,5,2,,,
{8}8b-4[12:1],2-5[12:1]/6b,8/3b,2b,1b-5[12:1],7-4[12:1]/3b,1/6b,7b,8b,
1b/5,{32}2bqq5[8:3]/8,3,4,5,6,7,8,1,{8},,{16},,,,
6-3[8:1],5,,5,,4,,2-5[8:1],1,,1,,8,,7-2[8:1],8,,8,,1,,3-8[8:1],4,,4,,5,,
6-1[8:1],5,,5,,4,,2,2,4,3,5,4,6,5,
{8}7-4[8:1],4-6[12:1]/8,3,{16}1,{8}1V37[24:5],87,6,{16}5,
{8}5-8[12:1],14,2,{16}4,7h[8:1],,5,6,3h[8:1],,4,
{8}2-5[8:1],5-3[12:1]/1,6,{16}8,{8}8V62[24:5],12,3,{16}4,
{8}4-1[12:1],85,7,{16}5,2h[8:1],,4,3,6,5,8,
{8}1>7[4:1],34,18,7,8h[8:1],{16}2,1,4,5,{8}1<3[4:1],54,12,3,2h[8:1],{16}8,1,6,5,
{8}7,18,34,5/6h[8:1],{16}5,7,2,4,3,5,8,6,4,5,3,1,5,7,{32}3,4,{16}2,5,4,6,5,
{8}8<2[4:1],65,81,2,1h[8:1],{16}7,8,5,4,{8}8>6[4:1],45,87,6,7h[8:1],{16}1,8,3,4,
{8}2,81,65,4/3h[8:1],{16}4,2,7-3[12:1],5,6,,2-5[16:1]/7,,,6h[16:5]/2,,,,,
5,7,2-6[12:1],4,3,,7-4[16:1]/2,,,3h[16:5]/7,,,,,
4,2,7-3[12:1],5,6,,2-5[16:1]/7,,,6h[16:5]/2,,,,,
5,7,2,4,3,,75,,,18,{8},75,{16}3,4,2,8,1,6,7-3[16:1]/5-2[16:1],,,75,,,,,
6,5,7,1,8,3,2-6[16:1]/4-7[16:1],,,24,,,,,3,4,2,8,1,6,7-3[16:1]/5-2[16:1],,,75,,,,,
6,5,7,1,8,3,24,,,81,{8},24,{16}6,5,8,1,4,3h[16:25],{4}2<2[1:1],,,,,,2b,,
{8}3,2,{16}3,4,2h[8:1],,4,3,1,2,4,3,1h[8:1],,3,4,1,8,4,5,1h[8:1],,
5,4,8,1,6,5,8h[8:1],,5,6,8,7,5,6,{8}4b-1[8:1],,,,,4b-1[8:1],,5b-8[8:1],,,,,
4b/6,5b/3,12,
{12}78,2,1,{16}3,4,{12}2,{24}6,5,{12}7,{8}18,{16}4,5,
{24}3,2,1,4,3,2,5,4,3,6,5,4,7,6,5,{16}4,8,
71,2,6,4,5,3,7,5,6,2,4,3,8,7b/1bpp1[4:1],,,,,,,,6bpp6[4:1],{8},,,
4h[4:1],,,{16},3b/5,,3/5b,,6,4,5,{12}3,4,1,6,5,8,
{8}1b/7,2/6b,{16}3,5,4,6,,18,72,,3,4,2,{32}6,5,{16}7,4,8,
1,7,2>5[8:1],,1b/8b,,5,6,7,{8}8-4[8:1],12,83,{16}2>5[16:1],1,,28,,
6,7,8,1-5[12:1],,26,,1,8,,37,,,2>5[12:1]/4b,,7b/8,,2b/1,,7-4[16:1],8-3[16:1],,7,8,,
5,64,,7,8,7,5,6,4,5,3,,4b/7,,6b/2,,3b/8-4[12:1],,1/7b,,
8/2b,,1>4[12:1],5,,6<1[12:1],1,,5,6,,3,4,2,5-8[12:1],1,6,,54,,2,1,,8b/3,,2b/5,,7b/4,
56,,8<5[12:1],4,,3>8[12:1],8,,4,3,,6,5,7,3,4,1,8,2,4,3,7,5,6,4,8,2,6,
4bqq4[16:3],,,,,,,,8bqq8[16:3],,,,,,2h[16:3],,,1,38,,6,5,,
{8}8b/4-8[12:1],6b/2-5[12:1],4b/3,2b,7b-4[12:1],5b/1-5[12:1],3b/7>2[12:1],1b,7b,
{16}3,4-8[12:1],,25,,4<7[12:1],3,,2,4-1[12:1],,3,,84,,
7,8-3[12:1],,61,,8,7<4[12:1],,26,,7,1,,2b/8b,37,,16,,34,2b/5b,,48,,
71,6b/2b,,8w4[12:1]/4,,,7b/1b,8,
&inote_6=(154)
{1},{4},,,{16}2/6<5[1:1],3,4,5,{4}6h[2:3],,,,,5-1[32:3],,
{16}28,,28,,3-5[16:1],3,,5,,7-3[16:1],7,,3,,1-5[16:1],1,,5,,
8,8,,17,,26,26,,7-4[16:1],7,,4,,2-6[16:1],2,,6,,8-3[16:1],8,,3,,1,1,,28,,5,5,,46,,
37,37,,2,2,1,1,8,8,7,7,6,6,5,5,4,4,3bs7[16:3],,,,,,,,4,8,4,8w4[32:3],4,8,,8b,,,,,,,
26,,26,,3,5-2[32:3],4,6-1[32:3],,5,,6,,3-6[16:1],3,,6,,,8,1,
7-3[32:3],2,6,,3-7[32:3],,1,1,,8,1-6[32:3],2,3-8[32:3],,1,,3,,7,2,,45,,,
6b,,7b/5b,,8b/4b,,2,2h[8:1],,4,4h[8:1],,6,6h[8:1],,
7,5,6,3,4,2-4[32:3],5,1-5[32:3],,2b-6[32:3],,1b-7[32:3],,2b,,1b,,4b,,
4,5,3,6,2,7,5,6,3,4,2h[8:1],,8,1,7,2,6,,84,84,,2,1,3,8,4,
7-3[32:3],,5-1[32:3],,7,,5,8-4[32:3],,6-2[32:3],,8,,6,1-5[32:3],,7-3[32:3],,1,,7,
2,,18,,72,,6,
2-6[32:3],7,3,,6-2[32:3],,8,8,,1,8-3[32:3],7,6-1[32:3],,8,,6,,2,7,,54,,,
3b,,2b/4b,,1b/5b,,7,7h[8:1],,5,5h[8:1],,3,3h[8:1],,
2,4,1,7,5,8-6[32:3],3,1-5[32:3],,8b-4[32:3],,1b-3[32:3],,8bV63[16:3],,1b,,
8b,,2-7[16:1],2,,4,4,,6-3[16:1],6,,8,8,,2,,1>4[16:1]/4,,5<8[16:1]/8,,,,,
1b,,2b/8b,,7b/3b,
7-2[16:1]/3,,5,5,,3-6[16:1],3,,1,1,,7,8,6,2,1,3,8,4,7,5h[16:3],,,
{32}8b,7,6,,4b,3,2,,8b,7,6,,3b,2,1,,7b,6,5,,3b,2,1,,6b,5,4,,2b,1,8,,6b,5,4,,
1b,8,7,6w2[32:5],5,4,3,2,1,8,7,6,,,
{16},,,,,,,3h[16:7],5,,5,,5,,5h[16:7],4,,4,,4,,
4h[16:7],6,,6,,6,,6h[16:7],3,,3,,3,,3h[16:7],5,,5,,5,,5,6b/2b,
,,,,,,2h[16:7],,5,,7,,1,1h[16:7],,4,,6,,8,8h[16:7],,3,,5,,7s3[4:1],7,,,,3b,,,
4h[16:7],,1,,7,,5,5h[16:7],,2,,8,,6,6,,34,,18,,27,27,,
6,5,7,4,8h[16:9],3qq4[16:5],,,,,,,,,,8,,8,,1h[16:8]/7qq8[16:5],,,,,,,,,,
1,,1,,37,,37,,5,,5,,3,4,2,5,1h[4:1],,7,6,5,4,8,7,6,5,1,8,7,6,2,1h[16:9],
6pp5[16:5],,,,,,,,,,1,,1,,8h[16:8]/2pp1[16:5],,,,,,,,,,
8,,8,,2-5[32:3]/6-1[32:3],,37,,
{8}26,,
{16}48,37,2-5[32:3]/6-1[32:3],15,48,,,,,2b/6b,,,,,
51,62,7-4[32:3]/3-8[32:3],84,51,,,,,7b/3b,,,,,
48,37,2-5[32:3]/6-1[32:3],15,48,,,,,2b/6b,,,,,
15,26,37,48,15,,3h[8:1]/7h[8:1],,,1h[8:1]/5h[8:1],,,37,,
1,28,7>1[32:3]/3>1[32:3],46,5,,3v5[32:3]/7v5[32:3],,,,,,,,
8,71,2<8[32:3]/6<8[32:3],53,4,,6v4[32:3]/2v4[32:3],,,,,,,,
5,64,3<5[32:3]/7<5[32:3],82,1,,7v1[32:3]/3v1[32:3],,,,,,,,
4,35,62,17,8,,6h[8:1]/2h[8:1],,,8h[8:1]/4h[8:1],,,62,,
7,8,6,1,5,3<2[16:17],{4}7>6[1:1],,,,,,3b/7b,,
{16}2,3,4,1h[16:3],2,3,4,,7,6,5,8h[16:3],7,6,5,,
1,2,3,8h[16:3],1,2,3,,8,7,6,1h[16:3],8,7,6,,
1,2,3s7[4:1],4,5,,3b,,,,,,,,,,
6b-2[8:1],,,,4bz8[4:1],,,,,,,,,,78,,65,,
34,,26,,7-4[16:1],8,,4,,2-5[16:1],1,,5,,,
71,,28,,3-6[16:1],4,,6,,8,1,,27,27,,45,,
6-8[16:1],5,,1,,3-1[16:1],4,,8,8bqq8[16:5],,,,,,,,4bqq4[16:5],{8},,,
5h[16:4],,,{16},46,,35,,2,1,2,{12}8h[12:1],7h[12:1],6h[12:1],5h[12:1],4h[12:1],3,
{16}2/1-5[32:3],,37,,15,,7,8,,26,,5,4,6,3,7,3,7,
2,8w4[32:3],4,6,,8b,,,
,,2-6[32:3],1,3,,6-2[32:3],,8,8,,1,8-3[32:3],7,6-1[32:3],,8,,6,,2,7,,45,,,
2b/1b-5[32:3],,4b/5b,,8b/1b,,7-4[16:1],7,,3-8[16:1],3,,6-3[16:1],6,,1,1,,
2,8,3-8[32:3],7,4-7[32:3],6,3b,,4b,,1b-5[32:3],,3b/8b,,1b/6b,,
7-2[16:1],7,,3-6[16:1],3,,7,7h[16:5],,8,1-6[32:3],2,3-8[32:3],,1,,3,,5,4,,
2b/7b,,3b/4b,,6b/5b,74,,2-5[16:1],2,,6-1[16:1],6,,3-7[16:1],3,,
8,8h[8:1],,2-6[32:3],1,3,8-4[32:3],2,,,8,,1,5,1,5,,
7bqq5[8:1]/3bqq1[8:1],,,,,,,,2b/6b,,,,
8,1,7-3[32:3],2,6,,73,,1,1h[8:1],,
{32}8b,7h[32:3],,,2b,3h[32:3],,,6b,5h[32:3],,,
4b,3h[32:3],,,6b,7h[32:3],,,2b,1h[32:3],,,
8b-4[32:3],7h[32:3],,,2b,3h[32:3],,,8b,,,,
{16}2-4[16:1],1,,5,,8,1-5[16:1],,7,8,,8,,46,,
7-5[16:1],8,,4,,1,8-4[16:1],,2,1,,1,,5,3b/6b,,21,,34,2b/5b,,78,,65,7b/4b,,
1w5[32:3],,,2b/8b,,
