&title=難聴系男子が倒せない
&artist=ラマーズP; 鏡音リン
&first=0
&des=世佳楽園 Team
&clock_count=4
&lv_5=13+
&inote_5=(150){1},
||Lead
{16}3,,4,,2/5,,4,3,,3,,3,4,,2/5,,
{16}6,,5,,7/4,,5,6,,6,,6,5,,7/4,,
{16}3,,4,,2/5,,4,3,,3,,3,4,,2/5,,
{16}6,,5,,7/4,,5,6,,6,,6,1b,,,,
{16}7,,8,,1/6,,8,7,,7,,7,8,,3/5,,
{16}2,,1,,3/8,,1,2,,2,,2,1,,4/6,,
{16}7,,8,,1/6,,8,7,,7,,7,8,,3/5,,
{16}2,1,3,8,4,7,5,6,4w8[8:1],,3/5,,4b/Cf,,,,
||Intro
{8}6h[4:1],5,4,3h[4:1],2,1,4/8,7,
{8}5/6h[4:1],8b,5,7b/8b,3h[4:1],1b,4,1b/2b,
{8}3h[4:1],4,5,6h[4:1],7,8,5/1,2,
{8}4/3h[4:1],1b,4,2b/1b,6,7/8,1/2,3/4,
{8}5/6h[4:1],7,8,1h[4:1],2,3,2/4,5,
{8}4/6,8b,3/5,1b,4/6,8b,3/5,1b,
{8}4/6,3,2/5,6,7/3,2,1/6,7,
{16}2,8,3,4,1,7,5,6,2,8,4,5,1b,,,,
||Verse
A
{8}6p4[4:1],6,4>6[4:1],3,2h[4:1],,,,
{8}3q5[4:1],3,5<3[4:1],6,7h[4:1],,,,
{8}6V47[4:1],6,4,3,2-6[8:1],,2,8h[4:1],
{8},5,6pp4[32:9],4,2h[4:1],,,,
{8}3q5[4:1],3,5<3[4:1],6,7h[4:1],,,,
{8}6p4[4:1],6,4>6[4:1],3,2h[4:1],,,,
{8}3V51[16:3],5,7,,6V84[4:1],6,1,3h[4:1],
{8},5,2qq5[32:9],6,6h[4:1],,,,
{8}7pp4[4:1],7,4>5[4:1],3,2h[4:1],,,,
{8}3,2x/4x,5,4x/6x,7,6x/8x,1,2x/8x,
{8}3V52[4:1],3,5,6,7-3[8:1],,7,1,
{8}2,1x/3x,8,7x/1x,6,5x/7x,4,3x/5x,
{16}2,1,2,1,3,4,3,4,8,7,8,7,5,6,5,6,
{16}4/7,,3x,3,1,2,8x,1,7,8,6x,1,5pp5[4:1]*qq5[4:1],2,4x,3,
{16},,,,,,1,1,8h[8:1],,7h[8:1],,6h[8:1],,5h[8:1],,
{8}4<7[8:1],4x,8>3[8:1],8x,5<4[4:1],5x,Cf,,
||Pre-Chorus
1
{8}1x,,6<2[8:1]/2v4[8:1],6/2,,,3,5,
{16}1v3[8:1],4-8[8:1],1,,,,,,4h[8:1],,7,7,4,,8,,
{8}5-2[8:1],,1-5[8:1],1,4-1[8:1],,8,8,
{8}3-8[8:1],,7,7,{16}6h[8:1],,1,1,5,,2,,
{16}3h[4:1]/4,,,,,,5,3,8,1,6,2,5-1[12:1],,5h[8:1],,
{16},,,,7h[8:1],,4,4,6,,5,,47,,3,,
{8}42,42,56,56,82,82,61,61,
{16}2,1,3,8,4,7,5,6,{32}4x,3x,2x,1x,8x,7x,6x,5x,4x-1[8:1]/8b,,,,,,,,
||Chorus
1
{8}4/5-8[8:1],,45,,34,2,17,6,
{8}5>3-7[4:1]/3,2/6,,1,1-5[8:1],,6x,6x,
{16}7h[8:1],,3,4,2h[8:1],,6,5,7h[8:1],,3,4,2h[8:1],,6,5,
{8}7v4[8:1],3-8[8:1],7,3,7w3b[8:1],,,,
{8}1xp4[8:1]/5x,5,6,7,8xqq6[8:1]/4x,4,3,2,
{8}1xv4[8:1]/6x,6,7,8,1x^6[8:1]/5x,5,4,3,
{8}2-7[8:1],5,2/6,,5q1[8:1],4,5/3,,
{8}1/2,46,7/8,35,{16}2-6b[8:1],1,3,,2b/8-5[8:1],,,,
{8}8/4-1[8:1],,84,,65,7,82,3,
{8}4V26[4:1]/6,3/7,,5,5-1[8:1],,2x,2x,
{16}3h[8:1],,7,8,6h[8:1],,2,1,3h[8:1],,6,5,7h[8:1],,3,4,
{8}2v5[8:1],6-1[8:1],2,6,{16}3V17[16:3],,4,5,3,,5,,
{16}6x-1[8:1],,57,,4,3,2,,8xv5[8:1],,27,,8,,1,,
{8}3x-8[8:1],25,3,7,{16}6xV82[16:3],,5,4,6,,3,,
{8}4qq1[8:3],,6,,7qq4[8:3],,2,,
{8}3,2,15,6,{16}1-5-1b[4:1],7,2,8,1,,,,
{8}6qq1[4:3],,,,E3f/B2/B3,,,2,
{8}2qq5[8:3]*qq5[8:3],,,,
{16}A7/B7/E7f,,,,6,4,6,4,
||Interlude
1
{8}5-7[8:1],5,4-8[8:1],4,5-1[8:1],5,4-2[8:1],4,
{8}5x,A7f/E7/B7,4x,A2f/E2/B2,5x,A7f/D8/B7,4x,A2f/D2/E2,
{8}6,6h[8:1],8,8h[8:1],1,1h[8:1],3,3h[8:1],
{8}7x,A3f/E4/B3,2x,A6f/E6/B6,8x,A3f/D4/B3,1x,A6f/D6/E6,
{8}4-8[8:1],4,5-1[8:1],5,4>1[8:1],4,5<8[8:1],5,
{8}4x,A2f/E3/B2,5x,A7f/E8/B7,4x,A2f/D2/B2,5x,A7f/D8/E8,
{8}2h[4:1],1,7h[4:1],8,3h[4:1],4,6h[4:1],5,
{16}2,4,3x,4,2,5,4x,5,2<7b[8:1],6,5x,6,2b,,,,
||Verse
B
{8}6V48[4:1],4,3,2,1-5[8:1],,1,7<4q8[8:3],
{8},4,3,2,1q5[32:5]*>4[8:1],,,,
{8}6pp1[8:3],5,4,3,2>5[8:1],,2,6h[4:1],
{16},,8<4[32:5],,1,,2,,3h[4:1],,1,8,7,,4/6,,
{8}2-5[8:1],5-1[8:1],6,7,8-4[8:1],,8,3V51[16:5],
{8},5,6,7,8p4[32:5]*<4[32:5],,,,
{8}3qq8[8:3],4,5,6,7-4[8:1],,7,3h[4:1],
{16},,5>1[32:5],,6,,7,,8h[4:1],,6,5,4,,7/3,,
{8}2-6[8:1],6-4>1[4:1],2,7,8-4[8:1],,8,3,
{8}3h[4:1],A8f/B8,5h[4:1],A1f/B1,4h[4:1],A7f/B7,6h[4:1],A2f/B2,
{8}3qq8[8:3],4,5,6,7-4[8:1],,7,3,
{8}3h[4:1],A1f/B1,4h[4:1],A8f/B8,5h[4:1],A7f/B7,6h[4:1],A2f/B2,
{16}3,4,3,4,3,4,3,4,2,1,3,4,2,1,3,4,
{16}2,1,3x,8,4,7,5x,6,8,7,1x,6,2z6[4:1],,2xh[8:3],,
{16},,,,,,3,3,4h[8:1],,5h[8:1],,6h[8:1],,7h[8:1],,
{16}8-4[8:1],,8x,,2-5[8:1],,2x,,7>4[16:3],,6x,6h[16:5],,,,,
||Pre-Chorus
2
{16}Cf,,,,2,,,,3,,,,4,,,,
{16}6<2v4[8:3],,6h[8:3],,,,,,,,8,8,1,,7,,
{16}3/4,,,,4/3,,,,6/5,,,,6/5,,,,
{16}7/8,,,,7/8,,,,1/2,,,,1/2,,,,
{16}3-6[16:3]/4,,,,,,7,,7h[8:1],,5,5,1h[8:1],,3,4,
{16}3h[4:1],,,,,,7,8,7h[8:1],,1h[8:1],,2h[8:1],,3h[8:1],,
{16}6<8[8:1],,6,,6x>4[8:1],,6,,6x<8[8:1],,6,,6x,,6,,
{16}1,5,1,5,1,4,1,4,2bV86[8:1]/3bV17[8:1],,,,,,,,
||Chorus
2
{16}5/4,,,,2/3-8[8:1],,,,5-1[8:1],,4,,6,,7,,
{16}8,,8V24[8:1]*>3[8:1],,,,,,,,,,5,,
{16}6,,7x<4[8:1]/8,,5,5,7x>2[8:1],,1,1,7x-3[8:1],,3,3,7x,,8,8,
{16}7x,,1-5[8:1],,2,,3-7[8:1],,4,,,,,,,,
{16}6b>3[8:1],,3p6[16:3],,6,,,,8b,,1,,2,,,,
{16}7b-3[8:1],,3q5<7[2:1],,7,,,,2b,,1,,1,,,,
{16}8b,6,8,6,5,7,5,7,8,6,8,6,4,8,4,8,
{16}3-7[8:1],,1-5[8:1],,3<2b[4:1],,1,,3,,,,B4/B5/C,,,,
{16}1/8,,,,2v4[8:1]/3,,,,5p1[8:1],,7,,8,,6,,
{16}1,,1V35[4:1]*V75[4:1],,,,,,,,,,4,,2,,
{16}7/8-5[8:1],,1/6,,7/8,,6,,7/8-5[8:1],,6/1,,7/8,,6,,
{16}7/8-4[8:1],,4-1[8:1],,1-5[8:2],,6,,8h[8:2],,,,,,,,
{16}7b-3[8:1]/5,,6,,3,,,,1b>4[8:1]/4,,6,,8,,,,
{16}7/5b<8[8:1],,3,,1,,,,2b-6[8:1]/4,,3,,6,,,,
{16}7/5V31[8:2],,,,1V72[8:2],,,,7,,,,5,,,,
{16}4/2,,4/2,,3/2,,3/2,,2<6[8:1],3,1,,6bv4[8:1],,,,
{16}8,,,,6v8[8:1],,,,4h[8:4],,,,,,
{16}2,,2v8[8:1],,,,,,{32}5,4,3,2,{16}1b,,,,7,8,7,8,
||Interlude
2
{8}7-2[8:1]/1,,7/4,,3-6[8:1]/5,,3/8pp1b[16:3],,
{8}8xqq7b[16:3],E2/B1,8xpp1b[16:3],B7/E7,8xqq7b[16:3],E2/B1,8x,B7/E7,
{8}2-7[8:1],,2/5,,6-3[8:1]/4,,6/1,,
{8}2xv3b[8:1],B1,7xv6b[8:1],B8,4x,{16}3,3,{8}8/2,7/4,
{8}6xb>3[8:1]/2xb,,8/6,,2x<7[8:1]/6x,,2/4pp5b[16:3],,
{8}4xqq3b[16:3],E6/B5,4xpp5b[16:3],B3/E3,4xqq3b[16:3],E6/B5,4x,B3/E3,
{8}7x-5[8:1],8-4[8:1],7,8,1-5[8:1],2-4[8:1],1,2,
{16}8,7,6,5,1,2,3,4,6qq1[4:1]*qq1[4:1],5,3,4,6b,,,,
||Bridge
{8}2-5[8:1],,2/1,,1-6[8:1]/4,,1/2,,
{8}7-4[8:1]/1,,7/8,,8-3[8:1]/5,,8/7,,
{8}2>5[8:1]/5,,2/1,,1<6[8:1]/4,,1/2,,
{8}7<4[8:1]/2,,7/8,,6/4,{16}6,3,{8}5,4/8,
{8}6b-1[8:1]/2,,6/5,,5-2[8:1]/8,,5/6,,
{8}3-8[8:1]/5,,3/4,,4-7[8:1]/1,,4/3,,
{8}6<1[8:1]/1,,6/5,,5>2[8:1]/8,,5/6,,
{8}3>8[8:1]/6,,3/4,,2/6,{16}3,6,{8}4,1/5,
{8}3b/7bp3[8:1],7,1,1,2q6[8:1],2,8,8,
{8}8p4[8:1],8,3,3,1q5[8:1],1,6,6,
{8}6pp8[8:1],6,2,2,3qq1[8:1],3,7,7,
{8}5-1[8:1],5,2,2,4,{16}5,4,{8}3/6,2/8,
{8}1b/7b<4[8:1],7,8,1,2<7[8:1],2,3,4,
{8}5>2[8:1],5,6,7,8<5[8:1],8,1,2,
{8}2-6[8:1],2,1-5[8:1],1,8-4[8:1],8,7,7,
{16}3,5,3,5,4,6,4,6,{8}2v7[8:1]*p6[8:1],,2b,,
||Chorus
3
{8}4w8b[8:1],,{32}4b,B4f,Cf,B8f/B7/B1,{8},3-1[8:1]/5,2,3/4-8b[8:1],5,
{8}4/2v5[8:1],3,2/7p3[8:1],6,7/1-5b[8:1],,1/8,7,
{16}4>2[8:1],,5,6,4-1[8:1],,5,6,4-8[8:1],,5,6,4,,5,6,
{8}1-5[8:1],2-6[8:1],1>8b[4:1],2,1,,Cf,,
{8}4x/7x<4[8:1],4,3,2,3x/8x>3[8:1],3,4,5,
{8}4x/1xV75[8:1],4,3,2,4x/8xq4[8:1],5,6,7,
{4}8-4[8:1],8>3[8:1]/4<7[8:1],4-1b[8:1]/8-5b[8:1],8/4,
{16}3/5,,2,,6/4,,7,,1,8,1,8,2b/7b,,,,
{8}3-1[8:1]/4-8[8:1],,4/3-7[8:1],,3/5<8b[8:1],6,5/2v5[8:1],3,
{8}2/7p3[8:1],6,7/1-5[8:1],2,1/8-4b[8:1],,8/2,3,
{16}5<7[8:1],,4,3,5-8[8:1],,4,3,5-1[8:1],,4,3,5,,4,3,
{8}1-5[8:1],7-3[8:1],1<2b[4:1],7,1,,Cf,,
{16}5x/2x>5[8:1],,5,,6,7,8,,6x/1x<6[8:1],,5,,4,3,2,1,
{8}5x/8xq4[8:1],5,6,7,5x/1xp5[8:1],4,3,2,
{4}1-5[8:1],1<6[8:1]/5>2[8:1],5q1b[8:1]/1q5b[8:1],1/5,
{16}6/4,,7,,3/5,,2,,8,1,8,1,7b/2b,,,,
{8}5/4>6<4[4:3],,,,B5/E6f/B6,,,6,
{16}6<3[16:5],,,,,,,,Cf/B4/B5,,,,2,5,3,7,
||Outro
{8}1,2,3/7,6,2/5,3,4/6,7,
{32}2h[8:1],,,,E8,B8,B1,E2,3h[8:1],,,,E6,B5,B4,E4,2h[8:1],,,,E8,B8,B1,E2,3h[8:1],,,,E6,B5,B4,E4,
{8}2,6,5/3,4,6/5,7,8/3,2,
{32}7h[8:1],,,,E2,B1,B8,E8,6h[8:1],,,,E4,B4,B5,E6,7h[8:1],,,,E2,B1,B8,E8,6h[8:1],,,,E4,B4,B5,E6,
{8}7,2,3/8,7,6/2,3,4/7,6,
{32}2h[8:1],,,,E6,B5,B4,E4,1h[8:1],,,,E7,B7,B8,E1,
{32}3h[8:1],,,,E6,B5,B4,E4,2h[8:1],,,,E8,B8,B1,E2,
{8}3,7,1/8,2,3/5,4,7/5,6,
{16}3,4,2b,7,5,6,1b,3,2,5,4b,6,5-1[8:1],,,,
{16}1b/5b<4[4:13]*p4b[4:13],Cf,,,,,,,,,,,,,,,
{1},,,
E
