&title=王と精霊の剣
&artist=葉月ゆら;塚越雄一朗
&first=0
&des=おにねこ
&wholebpm=190
&lv_5=13+
&inote_5=(190){1},
{192},,,,,,,,,,,,{16},,,,,,,,,,,,,,{32},5h[32:13],
{8}
4h[8:4],,,,6,5,,4,,3h[8:2],,4,3,5,,6,
3h[8:3],,4h[8:2],,2,3,,4,,5,,{32}6,,,6h[32:13],
{8}
5h[8:4],,,,7,6,,5,,4h[8:2],,5,3,6h[8:2],,5,7,4,5,2,4,1,
8p4[16:4],,3h[8:4],,,,4>6[8:6],,,,,,,5,5h[8:4],,,6,6p4[8:7],,,,1h[8:10],,,,,,,,
4,,5qq1[8:5],,6h[8:8],,,,,,,1,1>5[8:3],,8,,7h[8:4],,,5,5pp8[8:8],,,,,,,,{6}4,4,4,
{8}4>1[32:10]/8<4[8:3],,,,,,,4,4q1[8:3],,,3,3h[8:4],,,1,1q4[8:4],,,,,,,,
4z8[8:3],,5,,6h[8:4],,,8,8>3[8:3]*<5[8:3],,,,,,,4qq1[8:8],4pp7[8:14],,,,,,,,,,,,
1b,,,,,,
4,4,3h[8:3]/5,,6,7h[8:3],,2p5[8:5],1q6[8:4],,,,,,,,
5,5,6h[8:3]/4,,3,2h[8:3],,7qq6[8:5],8pp1[8:4],,,,,,,,
3,3,2h[8:2]/4,,6,5/7h[8:2],,2,3p5[8:4]/1q7[8:4],,,,,,,,
6,6,7h[8:2]/5,,3,4/2h[8:2],,8,7z3[8:4]/1s5[8:4],,,,,,,,
4,3,5h[8:2]/2,,4,7/5h[8:2],,6,3/5h[8:2],,4,6/5h[8:2],,6,4/5pp6[8:2],,,,
4h[8:2],,5,2/4h[8:2],,3,6/4h[8:2],,5,1/4h[8:2],,3,7/4qq4[8:2],,,,
5h[8:2],,4,8/5h[8:2],,6,2/5h[8:2],,4,7/5h[8:2],,6,1/5-1[16:2],,5,,
2b-5[8:1],,25,6b-1[8:1],,61,2b-6[8:1],,62,5b-1[8:1],,53,4b-8[8:1],,6b-2[8:1]/4,,6,1b-5[8:1],,71,8b-4[8:1],,38,2bs6[16:3],,,,,
(205)
{8}
7/3h[8:3],,4,5h[8:2],3,2h[8:2],5,6h[8:2],2,1h[8:2],6,5q3[8:2],8h[8:5],,,,,
4h[8:2],1,2h[8:2],5,6<8[8:1],3,4h[8:2],,6h[8:1],5h[8:1],8h[8:1],1h[8:1],4h[8:1],3h[8:1],7,
6h[8:3]/2,,5,4h[8:2],6,7h[8:2],4,3h[8:2],7,8h[8:2],3,4pp5[8:2],1h[8:5],,,,,
5h[8:2],8,7h[8:2],4,3>1[8:1],6,5h[8:2],,3h[8:1],4h[8:1],2,1b/2b,8b/3b,7b/4b,,
5h[8:3]/2,,4,3,52,6h[8:2],3,2,61,7h[8:2],2,1,8/7<4[8:1],,74,,1,2,5/3,6,53,2-4[8:1],,2/8<6[8:1],,8>2[8:1],4,8qq1[8:2],3,,,,
4h[8:3],,5,6,47,3h[8:2],6,7,38,2h[8:2],7,8,1/2-6[8:1],,52,,8,7,46,3,64,7-5[8:1],,7/1>3[8:1],,1<7[8:1],6,1,5w1[8:1],,5b,,
4h[8:2]/3,,2h[8:1],4,1h[8:1],4,2h[8:1],4,
3h[8:1],6-3[8:1],,6,2-6[8:1],,7h[8:2],,
5h[8:1],6,3h[8:1],4,2h[8:1],1,3h[8:1],5-8[8:1],
4,6<1[8:1],,2>5[8:1],,,,8h[8:1],
4h[8:2],,7h[8:1],5,8h[8:1],5,7,5,
6,3-5[8:1],,3,7-3[8:1],,2h[8:2],,
4h[8:1],3,6h[8:1],5,7h[8:1],8,6h[8:1],2-6[8:1],
,2b-4[8:1]/8bq4[8:1],,2bp6[8:1]/8b-6[8:1],,2b/8b,,,
5h[8:2]/3,,2,6,7/4,8,7/4,3,
7/4,8-4[8:1],,8,2-6[8:1],,52,,
7h[8:1],5,3h[8:1],5,7h[8:1],5,3h[8:1],8<6[8:1],3
,8>3[8:1],4,8<5[8:1],4,8,,3,
4h[8:2]/6,,7,3,2/5,1,2/5,6,
2/5,1-5[8:1],,1,7-3[8:1],,7/2h[8:2],,
{16}5h[8:2],,,,{16}2,4,2,4,{16}3b,,,,7,5,7,5,{16}6b,,2,4,2,3,4,5,7,6,5,4,3,2,1,8,
{8}4>1[8:3],,4,,4,,4,,4p8[8:3],,4,,4,,4,,4<7[8:1],,4>1[8:1],,4-6[8:1],,4h[8:3],,,
{6}8b,7h[24:1]/5b,5h[24:1]/4b,2h[24:1]/4b,8/1b,{8}
5pp1[8:4]/3h[8:1],,3h[8:1],,3h[8:1],,3h[8:1],,
3pp7[8:4]/8h[8:1],,8h[8:1],,8h[8:1],,8h[8:1],,
6-1[8:1]/1b,,2,3b-8[8:1],,6,
5b-1[8:1],,3,4b-7[8:1],,6,8,,
2bV84[8:11]/8bV26[8:11],,,,,,,,,,,,,,,{32},46,,,,2bV48[8:7]/8bV62[8:7],,{8}
,,,,,,,,,,,{32},,1b/7b,,,,2b/6b,,,,3h[32:5]/5b,,,,{128},,{8},
4/3>7[8:3],,4,,4,,4,,4/6<2[8:3],,4,,4,,4,4,
3bqq2[8:3]/5b,,6,,7,,8h[8:1],,
2/8,3,4h[8:1]/7,6,
3/5h[8:1],2,1h[8:1]/6,7,
4b/8b-5[16:2],,8-3[16:2],3-8[8:1],,4-1[8:1],,4<7[8:1],,
4>1[8:1],,8z4[16:4],8,,,,,1h[16:2],5h[8:1],2h[8:1],6h[8:1],3-1[16:2],,
8-4[8:1],,8,1-3[8:1],5-7[8:1],1,5,1-5[8:1],5,
1b-4[16:2],,1-6[16:2],6-1[8:1],,5-8[8:1],,5>2[8:1],,
5<8[8:1],,1s5[16:4],1,,,,,8h[16:2],4h[8:1],7h[8:1],3h[8:1],6-8[16:2],,
1-5[8:1],,1,7-5[32:3],3-1[32:3],7,3,7-3[8:1],3,
7b-4[32:4],,7-2[16:2],2-7[8:1],,3-6[8:1],,3>7[16:3],,
7>3[16:3],,6qq7[16:5],6,,,,,3h[16:2],7h[8:1],4h[8:1],8h[8:1],5-1[16:2],,
8-4[8:1],,8,3-1[32:3],7-5[32:3],3,7,3-7[8:1],7,
3b-8[32:4],,3-6[16:2],6-3[8:1],,7-2[8:1],,7<3[16:3],,
3<7[16:3],,1w5[16:4],1,,,,,
6h[16:2],2h[8:1],7h[8:1],3h[8:1],8h[16:4],
{16}4b,3,2,1,7,6,5,4,{32}1,2,3,4,5,6,7,8,{16}1b/5b,,,3b-6[16:1]/7b-2[16:1],,,3b/7bs3[8:6],,,
&inote_6=
