&title=Flashback Flicker
&artist=t+pazolite
&first=-1.269
&des=HYPЯDR1V3Я No.216
&lv_5=14
&inote_5=(169){4},{8},,,,,,,,,,,,,,8/2,
{48}2x/8<5[8:3],3x,{6}4xq1[3:1],{24},,,,,,,,,,,,,,,,{8}1/7,
{48}7x/1>4[8:3],6x,{6}5xp8[3:1],{24},,,,,,,,,,,,,,,,{8}8/2,
{48}2x/8v5[8:3],3x,{6}4xv1[3:1],{24},,,,,,,,,,,,,,,,{8}2h[8:1],
4h[8:1],3h[8:1],8h[8:1],5h[8:1],6h[8:1],1h[8:1],7h[8:7],
{4}1,1,2,2,
{8}3/6,6h[8:5],{4}3,4,4,
{8}5/4,4h[8:5],{4}5,6,7,
8h[4:1],5h[4:1],3h[4:1],1h[1:1],
E4,B4,B5,E6,
{8}6,6,{4}6/5,8/7,1/8h[1:1],
E6,B5,B4,E4,
{8}3,3,3/5,5,{4}3/5,2/4,
1/C,2/C,3/C,4/C,
{8}E5,E6,E7,E8,E1,E2,E3,E4,
{2}4x/5h[4:3],{4}3,3,
{8}3/5,E2,6/4,E8,{4}B5/B4/E4/E6,2/7,
{8}2-4[8:1],1,2,{16}1,8,{8}7>1[8:1],2,7-5[8:1],3,
{4}7/3,{8}2/4<2[8:3],{16}3,5,{4}4,C,
{8}7-5[8:1],8,7,{16}8,1,{8}2<8[8:1],7,2-4[8:1],6,
{4}2/6,{8}5h[4:1],{16}4,3,{8}2-5[8:1],1,{4}2/8,
{8}7h[4:1],4,3,{16}7,6,{8}5-7[8:1],3-5[8:1],5,3,
{4}8h[8:1],{8}7/1>6[4:1],{16}8,2,{4}1,C,
{8}1/7h[4:1],1,2,{16}2,6,{8}3h[4:1],6,5p3[4:3]*<8b[8:1],5,
{1}5,
{48}7/2b,6,{24}5h[12:1],{48},,,,,,,,3/7,4,{24}5h[12:1],{48},,,,,,,,6/1,5,{24}4h[12:1],{48},,,,,,,,2/8,3,{24}4h[12:1],,,,,{8}6/5,
7,8/1,2,6/4,7,1/8,1/8,
{48}2/7bh[8:1],3,{24}4h[12:1],{48},,,,,,,,6/2h[8:1],5,{24}4h[12:1],{48},,,,,,,,3/8h[8:1],4,{24}5h[12:1],{48},,,,,,,,7/1h[8:1],6,{24}5h[12:1],{48},,,,,,,,{16}3,
4,{8}3,1/8,{16}6,5,{8}6,4/5,6/2-4[12:1],7/1,
{4}2b/6b,{48}6x/2h[8:1],5x,{24}4xh[12:1],{48},,,,,,,,2/7h[8:1],3,{24}4h[12:1],{48},,,,,,,,7/1h[8:1],6,{24}5h[12:1],,,,,{8}2/8,
{16}3,4,{8}3,3/4,{16}5,4,5,4,6,5,6,5,
{4}7-5-2[2:1],D4,2-7-4[2:1],A3,
4-8-5[2:1],D3,{8}2,2,2,2,
5b/1h[8:1],6,8/1h[8:1],7,{48}1/6h[8:1],2,3,4,,,,,,,,,8/2h[8:1],7,6,5,,,,,,,,,{8}3/6h[8:1],
4,7/5h[8:1],8,4/1h[8:1],3,2/8,8/2,
2b/8h[8:1],3,5/8h[8:1],4,{48}8/3h[8:1],7,6,5,,,,,,,,,1/7h[8:1],2,3,4,,,,,,,,,{16}6,
5,{8}6,4/7,{16}3,4,{8}3,2/5,6/1-5b[8:1],3/8,
{4}1b/4-7[8:1],{8}2/4-1[8:1],2,4/6,6,7-5[8:1]/8-5[8:1],7/8,
{4}7-3[8:1]/8-3[8:1],7/8,{16}4,6,{8}4,3/5,5/3,
2/6,6/2,1/7,7/1,{48}2/8x,7x,6x,5x,{12}4x,{48},,,,1/7,2x,3x,4x,{6}5x,
{1}7h[4:3]/3h[4:3],
1>2-4<5p8b[2:7]/5<6-8>1p4b[2:7],
{2},,,,,,6h[8:15],
{4}4,4,
B4,B3,{2}B2,
5/2h[1:1],{4}4,5,
{2}6h[4:3],E6h[2:1],
{8}7,7h[8:3],{4}B5,B4,{8}7/E4,6,
{4}2/5h[4:1],B5/E6,7/4h[4:1],B4/E4h[4:1],
{8}2,2h[8:3],{4}B4,B5,{8}3/E6,4,
{4}5/7h[8:1],8/7h[8:1],7/1,B6/B2/E7/E2,
5/3h[4:1],{8}5,{16}6,5,{8}6h[4:1],4,3h[4:1],5,
{4}6h[4:1],5h[4:1],4h[4:1],3h[4:1],
4,{8}4/5,{16}3,4,{8}2,2h[4:1],7,7h[8:1],
{1}1w5[2:1],
{4}7h[8:1]/5h[8:1],{16}4,6,{8}4,{4}5h[8:1],5/3,
2h[8:1]/4h[8:1],{16}5,3,{8}5,{4}4h[8:1],6/4,
5h[8:1]/7h[8:1],{16}6,4,{8}6,{4}5h[8:1]/3h[8:1],2h[8:1]/4h[8:1],
3h[8:1]/5h[8:1],3h[8:1]/5h[8:1],4h[8:1]/6h[8:1],4h[8:1]/6h[8:1],
{8}6,7-4[8:1],7,4,3,2-5[8:1],2,6,
7,8p4[8:1],8,3,2,1q5[8:1],1,7,
{16}8x,1x,2x,3x,4x,5x,6x,7x,{32}E1,E2,E3,E4,E5,E6,E7,E8,E1,E2,E3,E4,E5,E6,E7,E8,
{1}1xs5[2:1]/8x-4[2:1],
{4}E1,B7/B2,E6/E4,E5/D5,
4h[6:1]/E6,5h[6:1]/E4,{2}E5h[4:1],
{8}6h[4:1],5,5h[4:1],6,7h[4:1],6,{4}6h[4:1],
{8}8,8,C,{16}7,7,{8}5,5h[8:1],{4}E7,
{8}3h[4:1],4,4h[4:1],3,2h[4:1],3,{4}3-6v8-5[8:7],
{2}1h[4:1],B4/E4/B3,
{8}4h[4:1],6,7h[4:1],6,5h[4:1],7,{4}8h[4:1],
{8}6,6,E8,{16}5,5,{8}E7,E4,{4}E5,
{8}5h[4:1],3,2h[4:1],4,3h[4:1],1,{4}1h[4:1],
B4/E4,B2/B7,3h[8:3],8<5[8:1],
{48}2/A8,D8,A7,D7,A6,D6,{8}A5,1<6[8:1],2,{48}3/A1,D1,A8,D8,A7,D7,{8}A6,4,3,
8-5[8:1],1,2-4[8:1],1,8,8,1>4[8:1],8,
{48}7/A1,D2,A2,D3,A3,D4,{8}A4,8>3[8:1],7,{48}6/A8,D1,A1,D2,A2,D3,{8}A3,6-4[8:1],6,
6/8-3[8:1],7,8/6-4[8:1],7,6/8-3[8:1],7,{4}6b/8x,
4h[8:1]/6h[8:1],{8}6/4,3,{4}5/2h[8:1],{8}5/3,6,
{4}4h[8:1]/7h[8:1],5h[8:1]/2h[8:1],{8}7/4h[8:1],6,3/5h[8:1],2,
{1}1/4>6[4:3],
{4}2qq4[2:1],B6h[2:1],{12},,,,,,{6}3/8-4[8:1],
{12}8,8/2-7[8:1],,2,{6}2/5,{12}5,6/3,4,7,
{6}8-2[12:1],{12}8,8/5-1[8:1],5,5,{4}5/7>5[4:1],A7/D8,
{6}1-6[8:1],{12}1,1/4-8[8:1],,4,{6}4/2,{12}3,3/6,5,5,
{6}4-2[12:1],{12}4,4/7-3[8:1],7,7,{4}7/2<1-7-5>4[4:1],A2/D2,
{6}8v5[8:1],{12}3,8/2>4[12:1],,6,{6}2/7,{12}8,7/3,2,6,
{4}1/5>3[12:1],1-3[12:1]/5-7[12:1],1v4[8:1]/5v8[8:1],5/1,
{6}1/6,{24}8,7,{12}8,{24},,6,4,{6}5,{24}2,5,3,4,3,4,3,4,
{16}5/2,,,3/4,,,{8}5/7,8/1,{32}1,2,3,4,{8}7/5h[4:1],7,
{16}8-4b[16:1],,,8b/1h[16:5],,,,,,,{8}3/4,4/5,6/5,
{24}8,7,8,7,,,{8}4/6,3,{24}1,2,1,2,,,{8}5/3,{16}4,6,
1-5b[16:1],,,1b/8h[16:5],,,,,,,6,5,{8}7,8/1,
{32}7x/2,3,4,5,6,7,8,1,2/6x,3,4,5,6,7,8,1,{4}2/5xh[8:1],{32}B1/B5,B2/B6,{16}E3/E7,,,{4}4b/8b,
{8}2/6,7/3,4/6,5/4,3/6-8[12:1],2/6,
6/1v4[12:1],1,1/7q3[8:1],7,7/3>5[24:5],4,{4}4h[8:1],
{16}3,4,2,5,1,8,1,8,2,7,5,7,3h[32:1],6h[32:1],5h[32:1],7h[32:1],
8b/4b,,,6b/5b,,,{8}7b/2b,{2}B8f/B1f/C/B7h[4:1]/B2h[4:1],
{16}2,7,1,6,8>8[4:1],5,7,5,{32}A8,A1,A2,A3,A4,A5,A6,A7,D1,D2,D3,D4,D5,D6,D7,D8,
B8/A8,C/B4/A4,
E
