&title=PANDORA PARADOXXX [DX]
&artist=削除
&first=0
&des=魔曲之魂
&lv_6=15
&inote_6=(150){1},
{1},
{64}D8/E8/D4/E4/B3/B5/B7/B1/E2/D2/E6/D6/E1/D1/E7/D7/E5/D5/E3/D3,C1f,
{64},,,,,,,,,,,,,,,,,,,,,,,,,,,,,,D7,,,,,,,,,,,,,,,,,,,,,,,,,,,,,,,,
{288}D7,E8,E6,,,,,,,,,,,,,,,,,,,,,,{12},,{4},
{288}D7,E8,E6,E1,E5,,,,,,,,,,,,,,,,,,,,{12},,{4},
{288}D7,E8,E6,E1,E5,E2,E4,,,,,,,,,,,,,,,,,,{12},,{4},
{288}D7,E8,E6,E1,E5,E2,E4,D3,,,,,,,,,,,,,,,,,{12},,{4},
{24}C1,,,,,,
{96}D7/E8/E6/E1/E5/E2/E4/D3,C1h[16:1],,,{24},,,,,
{16}5,5,5,5,1,1,1,1,
{48}2b/8b,3/7,4/6,5,,,{16}3x,4x,3x^8[32:5],,4/6,,8,7,6,5,4/1x,,6,5,
{16}6^1[32:5],,5/3,,1,2,3,4,5/8x,,3,4,2,,1/8,,
{16}7-3[32:4],,5-1[32:4],,4<2[64:10],,,,,,3h[16:4],,4x,5,6,7,
{16}8/1,,3pp4[8:1],5,4>8[64:9],,7/3,,8,7,6,5,4/7,,1-5>1[32:7],5,3,,1/7,,
{16}8,7,6,5,4/8,,7pp8[8:1],1,8<4[64:9],,3/7,,
{16}4,3,2,1,8/3,,5-1<5[32:7],1,7,,5/3,,4,3,2,1,
{8}4/8,{16}6,5,{8}7,8/4,{16}3,1,{8}2,
{16}8-3-5[32:6]/3,,6/1,,
{48}5-8[8:1]*-7-1[8:1]/8,,,,,,,,,,,,
{48},,,,,,,,,,,,E2,,6x,,5x,,6x,,5x,,6x,,E1,,5,,4,,5,,4,,5,,
{48}E8,,4,,3,,4,,3,,4,,E3,,,6,,,5,,,6,,,E1,,,5,,,4,,,5,,,E7,,,,,,4,,,,,,
{4}1b,,,{32}5b,D6,A6,D7,A7,D8,A8,D1,
{32}A1,E1,E8,A7,D2,B1,B7,D7,{40}A2,B2,C8,B6,A6,
{32}D3,B3,B5,D6,A3,E4,E5,A5,{24}D4,A4,D5,
{16}8,,,8,
{96},,,,,,,,,,,,8,,,,,,,,,,,,,,,,,,8,,,,,,,,,,,,,,,,,,
{96}2,,,,7,,,,2,,,,7,,,,2,,,,7,,,,1,,,8,,,2,,,7,,,3,,,6,,,4,,,5,,,
{8}1x-5[8:1],,
(200)
{8}1/7,,6h[4:1],,3h[8:1],4h[8:1],
{8}2h[8:1],8h[8:1],1h[4:1],,6h[8:1],4h[8:1],5h[4:1],,
{24}2x,2x,2x,{16}8h[8:1],,3h[8:1],,7h[8:1],,{24}5,6,5,6,5,6,{16}4h[8:1],,1h[8:1],,
{8}2h[8:1],7h[8:1],8h[4:1],,5h[8:1],4h[8:1],8h[8:1],2h[8:1],
{16}6h[8:1],,3,2,1p4[5:1],,,,4x,5x,6x,7x,8xh[8:1],,2,,
{16}4h[8:1],,6,,8h[8:1],,2,,{12}4,4,4,6,6,6,
{48}8hx[8:1],D6,A5,D5,A4,D4,A3,D3,A2,D2,A1,,
(150)
{24}7-5-1[32:8],,,8,,,1,,,2<6[32:5],,,3,,,4,,,
{24}5>2[8:1],,,4,,,6,7,8,1-3-7[32:8],,,8,,,7,,,6^4[64:5],,,,,,
{24}8,1,2,3,,,3/4,,,2/5,,,1h[8:1]/6,,,7h[8:1],,,{24}2,4,3,6,5,7,
{48}2h[8:1],A1,D1,A8,D8,A7,D7,A6,D6,A5,D5,,
{24}3-6[8:1],,,2,,,1,,,8-2-4[32:6],,,,,,7/8,,,
{16}5,,6,5,7,6,{8}8-4[8:1],1,2,3^8[8:1],5,
{8}6,7^4[9:1],6,7-1-3[8:1]/8v2[8:1],1,7v5[8:1]/8-6-4[8:1],,8-3b[7:1]/7,
{16},,8/3-6b[7:1],,2x,,1x,,8x^3[8:1],,7,,8,,5^8[8:1],,
{16}4,,5,,3^8[8:1],,7,,3,,7^4[8:1],,1,,7,,
{16}2h[16:1],,3,2h[16:1],4,,5/2h[16:1],,,6/2h[16:1],,,7h[16:1]/8,,1,7h[16:1],
{32}2,,,,3/7h[16:1],,,,,,8h/4,1h,2h,3h,4h,5h,
{32}6h[16:1]/8,,,,1,,6h[16:1],,2,,,,6h[16:1]/3,,,,
{32}4h,5h,4h,5h,{16}4h,,3/6,,4/7,,5-3-8[64:8]/8-5[64:6],,1/6,,,,,,
{48}1bx/2x,8,7,6h[8:1],,,,,,3b,,5,,4,,6h[16:1],,,
{48}8b,1,2,3h[4:1],,,{32}5,,5,,5,,5,,
{48}8b,1,2,3h[8:1],,,,,,6b,,4,,5,,3h[16:1],,,
{48}1b,8,7,6h[8:1],,,{32}4,,4,,4,,4,,
{48}1b,8,7,6h[8:1],,,,,,2b,,4,,3,,5h[16:1],,,8b,,7,,1,,
{48}8h[16:1],,,3b,,5,,4,,6h[16:1],,,1b,,8,,2,,1h[16:1],,,
{48}4b,,6,,5,,7h[16:1],,,8b,1,2,3h[16:1],,,{32}6,5,4,3,2,1,8,7,
{8}3^2-7b[8:1]/6,2/7^6-3[8:1],{24},,,,,,
{8},8^1p4b[8:1]/5,1/4^5p8[8:1],{24},,,
{48},,,,,,,,,,,,1/2,3,4,5,6,,,,,1/5,2,3,4,5,,,,,
{48}8/4,7,6,5,4,,,,,8/7,6,5,4,3,,,,,
{32}2,3,7,6,2,3,7,6,1-5[12:1],2,8,7,1,2,8,7,1,,,,6h[8:1],,,,1^4[8:1],,,,2,,8,,
{16}1,,6^1[8:1],,5,4,6,,2-4-8[64:14],,2,,{16}8x^3[64:7],7,6,,
{16}6,,5,,3/4,,2-5[10:1],8,1,,7-4[10:1],,8,1,7,,
{16}8-3[8:1],,3^6[8:1],,6^1[8:1],,1^4[8:1],,
{64}D6,A6,D7,A7,D8,A8,D1,A1,D2,A2,D3,A3,D4,A4,,,
{16}5h[4:3],,,,
{16},,,,,,,,{12}2-6b[32:23],E2,E3,B1,B3,B8,B4,B7,B5,E7,E6,A6,
{24}A3/B3,5,4,5,4,5,A2,5,4,5,4,5,
{48}A1,,5,,4,,5,,4,,5,,A8,,5,,4,,5,,4,,5,,A7,,,5,,,4,,,5,,,A6,,,,,,4,,,,,,
{48}2b,,,,,,,,,,,,{96}A7/A3/E7/E3/B6/B2/B8/B4/E8/E4,C1,{48},,,,,,,,,,,
{24}6^1[10:1]/2,,,,,,6/2,3,4,5,6,7,8/4^1[10:1],,,,,,8/4,7,6,5,4,3,
{24}2/6-1[10:1],,,,,,6/2,3,4,5,6,7,{16}8/4-1[10:1]*-7[10:1],,,,
{48}4b,B4,C1,B8,A8,,{32},,,,
{24}6/2^5[10:1],,,,,,
{24}6/2,7,8,1,2,3,8^5[10:1]/4,,,,,,8/4,3,2,1,8,7,
{96}6/2,,,,1,,,,8,,,,7,,,,6,,,,5,,,,
{96}4/8,,,,7,,,,6,,,,5,,,,4,,,,3,,,,
{96}2/6,,,,5,,,,4,,,,3,,,,2,,,,1,,,,
{4}4p8[8:1]/8,
(225)
{16}4x/8x>3[7:1],7,6,5,4x,5,6,7,8x/4x-8[7:1],5,6,7,4x/8x<5[7:1],1,2,3,
4x,3,2,1,4x/8xp4[7:1],3,2,1,8x/4x<7[7:1],3,2,1,8x,1,2,3,
4x/8x-4[7:1],1,2,3,8x/4x>1[7:1],5,6,7,8x,7,6,5,4x/8x,7,6,5,
(150)
{12}1hx[12:1]/4x,3hx[12:1],5hx[12:1],
{48}2xh[16:1],,,,4xh[16:1],,,,6xh[16:1],,,,
{48}4/5,,,,3/6,,,,2/7,,,,
{24}1,8,2,7,3,6,{24}4,5,4-1[24:4],5-8b[24:3],4,5,4,5,4,{4}5,
{16}3,4,2>6[8:1],,1/8,,
{16}2b/7h[8:1],,,,{24}1/8,2/7,3/6,{16}5qq3<8[8:3]/4,,8/7,,2/5,,
{16}1,,1,2,3^5-1b[32:7],,
{24}3,,,1^7-3b[32:6],,,{16}6,6,6,6,6^3-1^8[16:3],6,6,6,{24}6bx/2h[8:1],,,
{16},,{24}7/4x,6/3,5/2,{16}4/1p4>5[32:13],,8/7,,5/1,,6,,7h[8:1],,,,
{32}4/8,3,2,1,{24}8-2-5b[8:1]/7,,,{16},6,6,{16},{16}7<3[8:1],6,8,1,
{16}7b,,,,{24}8/1,7/2,6/3,{16}4pp6>1[8:3]/5,,1/2,,7/4,,8,,8,7,6^4-8b[32:7],,
{24}6,,,8^2-6b[32:6],,,{16}3,3,3,3,3^6-8^1[16:3],3,3,3,{24}3bx/7h[8:1],,,
{16},,{24}2/5x,3/6,4/7,{16}5/8q5<4[32:13],,1/2,,4/8,,3,,2h[8:1],,,,
{32}1/5,6,7,8,{24}1-7-4b[8:1]/2,,,{16}3,3,3,3,3w7[10:1],3,3,3,
{48}C1f,,,,,,,,,,,,3x^6[9:1],,,1,,,
{16}2,,8,,8^3[9:1],,7,,6-1[9:1]/8,,5,,4-8b[9:1]/6,,3,,7,7,
{16}7,7,7,7,7,7,1b,5,8,5,2,5,7,5,3,5,
{48}6,,,5,,,{32}8,1,2,3,{48}4,,,6,,,4,,,3,,,4,,,7,,,4,,,2,,,4,,,8,,,4,,,1,,,
{48}4-8b[10:1],,8,,2,,7,,1,,5,,4b,,,,,,6,,,,,,6-4-2[8:1],,,8,,,7,,,,,,1,,,,,,8,,,,,,
{48}7hx[8:1]/3hx[8:1],,,,,,,,,
{864}8b/4b,,,,,,,,{96},1/5,,2/6,,3/7,,,,,,,,,,,,
{864}1b/5b,,,,,,,,{96},2/6,,3/7,,4/8,,,,,,,,,,,,
{864}2b/6b,,,,,,,,{96},3b/7b,,4b/8b,,5b/1b,,,,,,,,,,,,
{16}8x,8x,4^1-5[32:6],6,3,7,
{16}4b,,8,,{24}4/8,7/3,6/2,
{16}1/5p8<3[8:3],,7/8,,3/5,,2x,,2x,1,8^6-2b[32:7],,
{24}1x,,,8x/2x^4-8b[32:6],,,
{16}1,1,1,1,1,1,1,1,
{16}5/1,,2,4,3,,8/4,,7,5,6,,4-7-1[32:6]/7,,2/5,,
{48}1>4[8:1]*-3-5[8:1]/4,,,,,,,,,,,,
{48},,,,,,,,,,,,E4,,8,,6,,8,,6,,8,,E3,,7,,5,,7,,5,,7,,
{48}E2,,6,,4,,6,,4,,6,,E1,,,5,,,3,,,5,,,E8,,,4,,,2,,,4,,,E7,,,,,,3,,,,,,
{64}8x,,1x-5>8[32:42],,2x,,,,,,,,,,{4},,{32}1<4b[32:20],,,,,1,,,
{32},{24},,,,,,,,,,,,,,,{32},,,
(225)
{4}3-7[4:1],
{4}8,1,2-6[4:1],7,
{4}8,1-5[4:1],6,7,
{4}8-4[4:1],5,6,7-3[4:1],
{24}4,,,{16}5x,5x,5x,5x,5x,5x,5x,5x,5x,5x,{16}5x/4x,,{24},{24}3x/6x,,
{12},2x/7x,,{8}8hx[8:3]/1x,,,2h[8:3],,,
{8}4h[8:3],,,6h[8:3],,,8^3[6:1],,
{12}6,,,4^7[6:1],,,2,,,1^6[8:1],,3,
{24},,3,,,,5^2[8:1],,,,7,,,,7,,,,
{8}8h[8:2]/1,1,1,7h[8:2]/1,1,1,6h[8:2]/1,1,1,5h[8:2]/1,
{8}1,1,4h[8:2]/7,7,7,3h[8:2]/7,7,7,
{8}2h[8:2]/7,7,7,1h[8:2]/7,7,7,
{8}8h[8:2]/5,5,5,6h[8:2]/5,5,5,4h[8:2]/5,5,5,
{8}2h[8:2]/5,5,5,
{96}7hbx[8:9],A6,,{32},,,{8},,
{96}A6,E6,B5,,,,{32},,{8},,
{96}A6,E6,B5,B4,E4,,{32},,{8},,
{96}A6/E6/B5/B4/E4/A3,,,,,,{32},,{8},,1/8,,
{24}1/8,,,2,3,4,5/6,,,,,,8/7,6,5,3,2,1,8/7h[24:4],,,{24}6,5,4,
{24}3/8,2/7,1/6,{16},,2hx[16:1],4,4,7h[16:1],5,5,{32}1h,2,3,4,{32}8h,7,6,5,{16},,
{16}3/4,,2/3,,1/2,,8v6[12:1]/1-7-5[12:1],,8/7q3b[12:1]*p3b[12:1],,,,,,,,
{32}7x,6,5,4,3x,4,5,6,
{16}7,,8/1^3[12:1],,1x^7[12:1],,1x-4[12:1],,1x-6[12:1],,1x-5[12:1],,
{16}1x,,1x,,8x,,8x,,{32}3,4,6,5,2,3,7,6,{16}1,,1,,
{32}6,5,3,4,7,6,2,3,{24}8x,8x,8x,8x,8x,,{32}1,2,3,4,5,6,7,8,
{48}1h,,6h,,1h,,6h,,1h,,6h,,
{32}2-6[8:1],3,4,5,2,3,4,5,{24}2^7[8:1],,,{16},,{16}5,,5,,
{32}6h[32:3]/4-8[8:1],3,2,1,8,7,6,5,
{8}4/1h[4:1],,
{32}7bx,8hx[32:1],6x,7hx[32:1],5,6hx[32:1],4,5h[32:1],
{32}3^2^1^8^7^6^5^4^3>3>3^8b[16:27],4h[32:1],2<2<2^1<2^1^8[16:26],3h[32:1],
{32}1^8^7^6^5^4^3^2^1^8^7^6^5^4^3^2^1<1^8b[16:25],2h[32:1],
{32}8<1<2^1^8^7^6^5^4^3^2^1^8[16:24],1h[32:1],
{32}7^6^5^4^3^2^1^8^7^6^5^4^3^2b[16:13],,,,,,,,
{1},
{48},,,,,,,,,,,,,,,,,,,,,,,,,,,,,,,,,,,,,,,,,,
{48}1b/8b,2/7,3/6,4/5,,,
{96}D7/E7/D3/E3/B1/B2/B3/B4/B5/B6/B7/B8/E1/D1/E5/D5,C1f,,{32},,,{8},,,{4},
{1},
{1},
{1},
E
