&title=Feels So Right
&artist=Mysteka/Renko
&first=0.02
&des=Jason Willing
&des_6=Jason Willing
&des_5=Nayuta
&des_4=Of
&des_3=Of
&des_2=Of
&lv_2=6
&lv_3=9+
&lv_4=12
&lv_5=12+
&lv_6=14
&inote_2=(180){1},
{1},
{1}3h[1:1]/7h[1:1],
{1},
{1}2h[1:1]/6h[1:1],
{1},
{1}8h[1:1]/4h[1:1],
{1},
{1}1h[1:1]/5h[1:1],
{2},3/7,
{2}1/8<5[4:3],,
{2},6/2,
{2}8/1>4[4:3],,
{2},7/3,
{2}5/4>1[4:3],,
{2},2/6,
{2}4/5<8[4:3],,
{2},1b/8b,
{2}2h[2:1],5h[2:1],
{2}4h[2:1],7h[2:1],
{2}2h[2:1],5h[2:1],
{2}4h[2:1],7h[2:1],
{2}3h[2:1],8h[2:1],
{2}1h[2:1],6h[2:1],
{2}3h[2:1],8h[2:1],
{2}1h[2:1],6h[2:1],
{4}2,5,4,7,
{4}2,5,4,7,
{4}3,8,1,6,
{4}3,8,1,6,
{4}2,2,5,5,
{4}4,4,7,7,
{1}1>8[4:5],
{1},
{2}2b/8b,3/7,
{2}4/6,3/7,
{2}2/8,3/7,
{2}4/6,3/7,
{2}7b/1b,6/2,
{2}5/3,6/2,
{2}7/1,6/2,
{2}5/3,6/2,
{2}3b/5b,2/6,
{2}1/7,2/6,
{2}3/5,2/6,
{2}1/7,2/6,
{2}6b/4b,7/3,
{2}8/2,7/3,
{1}4>5[4:5]/6,
{1},
{1}2>7[4:5],
{1},
{1}3>6[4:5],
{1},
{1}6<3[4:5],
{1},
{1}7<2[4:5],
{1},
{1}8<5[2:1],
{1}2>5[2:1],
{1}7<4[2:1],
{1}1>4[2:1],
{1}8-5[2:1],
{1}2-5[2:1],
{1}7-4[2:1],
{1}1-4[2:1],
{2}3h[4:1]/6h[4:1],3h[4:1]/6h[4:1],
{2}1h[4:1]/8h[4:1],1h[4:1]/8h[4:1],
{2}2h[4:1]/7h[4:1],2h[4:1]/7h[4:1],
{2}4h[4:1]/5h[4:1],4h[4:1]/5h[4:1],
{1}3/6<3[4:5],
{1},
{2}3h[4:1]/6h[4:1],3h[4:1]/6h[4:1],
{2}1h[4:1]/8h[4:1],1h[4:1]/8h[4:1],
{2}2h[4:1]/5h[4:1],2h[4:1]/5h[4:1],
{2}8h[4:1]/7h[4:1],8h[4:1]/7h[4:1],{2}1h[4:1]/6h[4:1],1h[4:1]/6h[4:1],
{2}3h[4:1]/4h[4:1],3h[4:1]/4h[4:1],
{1}2>7[4:5]/5,
{1},
{1}1>8[4:5],
{1},
{4}3,3,8,8,
{4}2,2,5,5h[2:1],
{4}2,2,5,5,
{4}3,3,8,8h[2:1],
{4}6,6,1,1,
{4}7,7,4,4h[2:1],
{4}7,7,4,4,
{4}6,6,1,1h[2:1],
{4}3,3,8,8,
{4}2,2,5,5h[2:1],
{4}2,2,5,5,
{4}3,3,8,8h[2:1],
{4}6,6,1,1,
{4}7,7,4,4h[2:1],
{1}8<1[4:13],
{1},
{1},
{1},
{1},
E
&inote_3=(180){1},
{4},,1h[1:1],,
{2},8,
{2}7/2,
{4}5h[1:1],,
{2},4,
{2}3/6,
{4}2>5[2:1],,
{2},6<1[2:1],
{2},4h[2:1],
{8}8V64[2:1],,,,,3,,3,
{2},6<1[2:1],
{2},2>5[2:1],
{2},8h[2:1],
{8}4V28[2:1],,,,,7,,7,
{4},6,5,4,
{8}3h[2:1],,,,5,5,2,2,
{2}6h[2:1],3h[2:1],
{1}5pp1[4:5],
{1},
{4}3b,2/5,3/6,4/7,
{4}3/6,2/5,1p2[4:1],,
{4}6,7/4,6/3,5/2,
{4}6/3,7/4,8,8h[4:1],
{4},4,3/5,4/6,
{4}2/5,4/7,8q7[4:1],,
{4}3,2/4,6,5/7,
{4}2,1/3,7,6/8,
{4}7b,6h[8:1]/1h[8:1],7h[8:1]/2h[8:1],8h[8:1]/3h[8:1],
{4}7h[8:1]/2h[8:1],6h[8:1]/1h[8:1],5pp6[4:1],,
{4}2,3h[8:1]/8h[8:1],2h[8:1]/7h[8:1],1h[8:1]/6h[8:1],
{4}2h[8:1]/7h[8:1],3h[8:1]/8h[8:1],4,4h[4:1],
{4},8,7h[8:1]/1h[8:1],8h[8:1]/2h[8:1],
{4}6h[8:1]/1h[8:1],8h[8:1]/3h[8:1],4qq3[4:1],,
{8}6h[8:3],,,4h[8:3],,,8b<1[2:1],,
{1},
{8}2b/7b,,,,3/4,3/4,,2h[2:1]/5h[2:1],
{8},,,,,3/4,3/4,3h[2:1]/4h[2:1],
{8},,,,3/4,,2/5,2h[2:1]/5h[2:1],
{4},,1/6,1/6,
{8}7h[4:1]/8h[4:1],,,,1/6,1/6,,7h[2:1]/8h[2:1],
{4},,1/6,2/5,
{8}3h[2:1]/4h[2:1],,,,,3/4,,1>4[4:1]/6<1[4:1],
{4},,,2/7,
{8}6b/3b,,,,7/8,7/8,,6h[2:1]/1h[2:1],
{8},,,,,7/8,7/8,7h[2:1]/8h[2:1],
{8},,,,7/8,,6/1,6h[2:1]/1h[2:1],
{4},,5/2,5/2,
{8}3h[4:1]/4h[4:1],,,,5/2,5/2,,3h[2:1]/4h[2:1],
{4},,5/2,6/1,
{8}7h[4:1]/8h[4:1],,,1h[4:1]/6h[4:1],,,2/5<4[2:1],,
{1},
{2}6h[2:1],5h[2:1],
{2}4h[2:1],3h[2:1],
{2}2h[2:1],1h[2:1],
{2}8h[2:1],7h[2:1],
{1}6>8[2:1],
{2}3h[2:1],4h[2:1],
{2}5h[2:1],6h[2:1],
{2}7h[2:1],8h[2:1],
{4}1b,1,2,2,
{4}3,3,4,4,
{4}5,5,6,6,
{4}7,7,8,8,
{4}1/7,1/7,2/6,2/6,
{4}3/5,3/5,4,4,
{8}6,6,4,4,5h[4:1],,3,3,
{8}5,5,4h[2:1],,5,,,,
{4}7/4,3/5,1/8,2/6,
{4}3/8,5>2[4:1]/6,7,,
{4}4/1,8/2,6/5,7/3,
{4}8/5,2/3,4/6,7/8,
{1}3/5<3[2:1],
{4}6/4,1/8,3/5,2/7,
{8}7,7,1,1,8h[4:1],,2,2,
{8}8,8,1h[2:1],,8,,7,,
{4}5h[8:1]/8h[8:1],1h[8:1]/7h[8:1],3h[8:1]/4h[8:1],2h[8:1]/6h[8:1],
{4}1h[8:1]/4h[8:1],7>2[4:1]/6,5,,
{4}8h[8:1]/3h[8:1],4h[8:1]/2h[8:1],6h[8:1]/7h[8:1],5h[8:1]/1h[8:1],
{4}4h[8:1]/7h[8:1],2h[8:1]/1h[8:1],8h[8:1]/6h[8:1],5h[8:1]/4h[8:1],
{1}1/7<1[2:1],
{4}6h[8:1]/8h[8:1],3h[8:1]/4h[8:1],1h[8:1]/7h[8:1],2h[8:1]/5h[8:1],
{8}5,5,3,3,4h[4:1],,2,2,
{8}4,4,3h[2:1],,4,,5,,
{4}6b,7-5[8:1]/8,8,3-1[8:1],
{4}4,7-5[8:1],8,3,
{4}2,2-4[8:1]/1,1,6-8[8:1],
{4}5,4,3/5,2/6,
{4}1/7,
{4}3b,2-4[8:1]/1,1,6-8[8:1],
{4}5,2-4[8:1],1,
{4}6h[2:1],8,3h[2:1],1,
{4}7h[2:1],5,2h[2:1],4,{4}7b,6-8[8:1]/4,4,2-4[8:1],
{4}1,6-8[8:1],5,2,
{4}3,3-1[8:1]/5,5,7-5[8:1],
{4}8,1,2/8,3/7,
{4}4/6,
{4}2b,3-1[8:1]/5,5,7-5[8:1],
{4}1,3-1[8:1],5,
{8}7h[8:3],,,1h[8:3],,,5b<4[2:1],,
{1},
{1}1b,
{1},
{1},
E
&inote_4=(180){1},
{4},,2/8,,
{1}3h[1:1]/7pp5[1:1],
{4},,3/5,,{1}6h[1:1]/2qq4[1:1],
{4},,6/4,,
{8}7/5,,6,6,,4,,3h[8:3],
{4},4,3/5,2/6,
{8}1>4[2:1]/7,,,,,7,,8,
{4},,6/4,3/7,
{8}8/2h[8:7],,1,1,,8,,7h[8:3],
{4},,3/5,2/6,
{8}1/7h[8:7],,8,8,,1,,2,
{4},3h[4:1],5h[4:1],4,
{8}7-5[8:1]/4-8[8:1],,,,1,2,7,6,
{2}3h[2:1],7h[2:1],
{1}1w5[1:1],
{4},,4/6,2/8,
{8}3b/7b,,2/8,,7,7,4,4,
{8}6,6,2,2,8<5[4:1],,,,
{8}4,,3/5,,2,2,5,5,
{8}3V52[8:3],,6,,7,,8,,
{8}1/7,,3/5,,2,2,5,5,
{8}3,3,7,7,1>4[4:1],,8,,
{4}7-5[8:1],4,2-4[8:1],5,
{4}8-6[8:1],5,1-3[8:1],4,
{8}6b/2b,,7/1,,2,3,5,6,
{8}3,2,7,6,4>1[4:1],,5,,
{8}6,,7/2,,7,6,4,3,
{8}6V48[8:3],,3,,2,,1,,
{8}8/2,,6/4,,7,6,4,3,
{8}6,7,2,3,5<8[4:1],,2,,
{1}1bs5[4:5],
{1},
{8}2b/8b<5[8:1],,,,3,3,,2/5<8[8:1],
{8},,,,3h[2:1]/8,8,8,8,
{8},7,6h[8:1]/4h[8:1],,3h[8:1]/5h[8:1],,2h[1:1],4,
{8},4,4,4,4h[4:1],,,,
{8}1b>4[8:1],,5,,6,6,,7h[2:1],
{8},5,5,5,5b/7b,,8w4[4:1]/4,,
{8},,,,,6b-1[8:1]/2b-5[8:1],,6/2,
{8},,,8<4[4:1],,4,3,2,
{8}1b>4[8:1],,,,6,6,,7/4>1[8:1],
{8},,,,6h[2:1]/1,1,1,1,
{8},2,3h[8:1]/5h[8:1],,6h[8:1]/4h[8:1],,7h[1:1],5,
{8},5,5,5,5,4,3,2,
{8}8b<5[8:1],,4,,3,3,,2h[2:1],
{8},4,4,4,4b/2b,,1h[4:1]/5,,
{1}8bz4[4:5],
{1},
{1}2h[2:1]/5h[2:1],
{1}7h[2:1]/4h[2:1],
{1}3h[2:1]/8h[2:1],
{1}6h[2:1]/1h[2:1],
{1}3h[2:1]/5h[2:1],
{1}2h[2:1]/8h[2:1],
{1}6h[2:1]/4h[2:1],
{1}7h[2:1]/1h[2:1],
{2}2h[4:1]/5h[4:1],2h[4:1]/5h[4:1],
{2}7h[4:1]/4h[4:1],7h[4:1]/4h[4:1],
{2}3h[4:1]/8h[4:1],3h[4:1]/8h[4:1],
{2}6h[4:1]/1h[4:1],6h[4:1]/1h[4:1],
{4}3/5,3/5,2/8,2/8,
{4}6/4,6/4,7/1,7/1,
{8}2,2,4,4,5,5,7,7,
{16}1,8,1,8,1w5[8:1],,,,,,,,,,,,
{4}3b-1[8:1]/5b,5-7[8:1],2-4[8:1],8-6[8:1],
{4}3-1[8:1],5-7[8:1],2b,
{16}8,1,8,1,
{4}8-6[8:1],2-4[8:1],5-7[8:1],3-1[8:1],
{8}8-6[8:1],,2,,1,2/8,3/7,4/6,
{16}5h[2:1],,,,,,,,4,5,4,5,3,6,3,6,
{4}2-4[8:1],8-6[8:1],1-5[8:1],1,
{8}6,5/7,3,2/4,1h[4:1],,8,2/7,
{8}4,3/6,2>4[8:1]/7<5[8:1],8/1,2/7,,1/8,,
{4}2/7-5[8:1],3-1[8:1],6-8[8:1],2-4[8:1],
{4}7-5[8:1],3-1[8:1],6b,
{16}7,1,7,1,
{4}7-5[8:1],3-1[8:1],8-6[8:1],4-2[8:1],
{4}7-5[8:1],3-1[8:1],8-6[8:1],4,
{16}3h[2:1],,,,,,,,5,3,5,3,6,2,6,2,
{4}7-5[8:1],1-3[8:1],8-4[8:1],8,
{1}3b>5[4:5],
{1},
{8}3b/7b,,2/8,,7,7h[8:1],4,4h[8:1],
{8}6,6h[8:1],2,2h[8:1],8<5[8:1],,3/8,,
{8}4,,3/5,,2,2h[8:1],5,5h[8:1],
{8}3V52[4:1],,6,,7V16[4:1],,2,,
{8}3,,2/5,,2,2h[8:1],5,5h[8:1],
{8}3,3h[8:1],7,7h[8:1],1>4[8:1],,8/1,,
{4}7-5[8:1],4/7,2-4[8:1],5/2,
{4}8-6[8:1],5/8,1-3[8:1],4/1,
{8}6b/2b,,7/1,,2,3h[8:1],5,6h[8:1],
{8}3,2h[8:1],7,6h[8:1],4>1[8:1],,4/5,,
{8}6,,1/5,,7,6h[8:1],4,3h[8:1],
{8}6V48[4:1],,3,,2V48[4:1],,7,,
{8}6,,1/6,,7,6h[8:1],4,3h[8:1],
{8}6,7h[8:1],2,3h[8:1],5<8[8:1],,2/5,,
{1}1bs5[4:5],
{1},
{1}3b/7b,
{1},
{1},
E
&inote_5=(180){1},
{1},
{8}3h[2:3]/5,,,,,4,,4<8[2:1],
{1},
{8}6h[2:3]/4,,,,,5,,5>1[2:1],
{1},
{8}2h[2:3]/4,,,,,3,,3pp7[4:3],
{1},
{8}1<2[1:1],,,,,8h[8:3],,,
{4},8,1/7,2/6,
{8}3h[2:3]/5,,,,,4,,4<8[2:1],
{1},
{8}6h[2:3]/4,,,,,5,,5>1[2:1],
{1},
{8}2/6,,,,3,4,5,6,
{1}7qq1[2:3]/2pp8[2:3],
{1},
{16}2,,,,2,,,,3,4,3,,5,4,5,,
{4}3b/6h[4:1],3,2/5h[4:1],2,
{2}3/4-8[8:1],6/5-1[8:1],
{4}8,8,6/1h[4:1],6,
{2}5/2-4[8:1],8/5-1[8:1],
{4}7,7,8/3h[4:1],8,
{2}2/1-5[8:1],7/8-4[8:1],
{2}6v1[8:1]/5-1[8:1],3v8[8:1]/4-8[8:1],
{2}7v1[8:1]/5-1[8:1],2v8[8:1]/4-8[8:1],
{4}5/7h[4:1],5,4/6h[4:1],4,
{2}3/5-1[8:1],6/4-8[8:1],
{4}7,7,6/2h[4:1],6,
{2}3-5[8:1]/5,6-2[8:1]/8,
{4}1,1,8/2h[4:1],8,
{2}7/1-5[8:1],2/8-4[8:1],
{8}3-5[8:1],,5,6-2[8:1],,1,8b-5[2:1]*z4[2:1],,
{4},,,1/7,
{8}2b-4[8:1]/6b-2[8:1],,,,5,5h[4:1],,1<5[4:1],
{8},3,2,1>5[4:1],,7,8,1s5[4:1],
{8},,,,7b/3b,,2/8,2pp5[8:3]/8qq5[8:3],
{4},,,1,
{8}7-5[8:1]/3-7[8:1],,,,4,4h[4:1],,8>3[8:1],
{8},5-7[8:1],5,4-8[8:1],4,,,,
{8}6-1[8:1]/2pp6[8:5],,,,8,,,8h[8:1],
{8},5h[8:1],7h[8:1],4h[8:1],6h[8:1],3h[8:1],5h[8:1],1,
{8}3b-1[8:1]/7b-3[8:1],,,,8,8h[4:1],,4<8[4:1],
{8},2,3,4>8[4:1],,6,5,4z8[4:1],
{8},,,,2b/6b,,5/3,5pp8[8:3]/3qq8[8:3],
{4},,,4,
{8}6-8[8:1]/2-6[8:1],,,,1,1h[4:1],,5>2[8:1],
{8},8-6[8:1],8,1-5[8:1],1,,,,
{8}3-5[8:1],,5,6-2[8:1],,1,8b-5[2:1]*z4[2:1],,
{4},,,1/7,
{2}2h[1:2],3,
{2}4,5,
{2}6h[1:2],5,
{2}4,3,
{1}2pp5[8:5],
{4}8,8,7,6,
{8}5^8[4:1],4,3,2,1,,4^1[4:1],5,
{8}6,7,8,,1/8,,3/6,,
{4}2/8h[4:1],2,2/7h[4:1],2,
{4}2/6h[4:1],2,2/5h[4:1],2,
{4}7/1h[4:1],7,7/2h[4:1],7,
{4}7/3h[4:1],7,7/4h[4:1],7,
{1}7qq4[8:5],
{4}1,1,2,3,
{8}4^1[4:1],5,6,7,8,,5^8[4:1],4,
{8}3,2,1,1,8/1,,6/3,,
{4}7b-5[8:1]/2b-4[8:1],7/2,1-3[8:1]/8-6[8:1],1/8,
{4}7-5[8:1]/2-4[8:1],7/2,1-3[8:1]/8-6[8:1],1/8,
{4}4-8[8:1]/5-7[8:1],4/5,4-2[8:1]/5-1[8:1],4/5,
{4}4-8[8:1]/5-7[8:1],4-2[8:1]/5-1[8:1],4q5[2:1]/5<4[2:1],,
{16},,,,,,,,4,5,3,6,2,7,1,8,
{4}2h[4:1],4h[4:1],6h[4:1],8h[4:1],
{8}1^4[4:1],8,7,6,5,,8^5[4:1],1,
{8}2,3,4,4,5/4,,7/2,,
{4}6-8[8:1]/1-3[8:1],1/6,4-2[8:1]/1-7[8:1],4/1,
{4}6-8[8:1]/1-3[8:1],1/6,4-2[8:1]/1-7[8:1],4/1,
{4}1-5[8:1]/6-8[8:1],1/6,4-2[8:1]/1-5[8:1],4/1,
{4}1-5[8:1]/7-5[8:1],1-3[8:1]/7-3[8:1],1p7[2:1]/7<1[2:1],,
{16},,,,,,,,8,1,7,2,6,3,5,4,
{4}6h[4:1],8h[4:1],2h[4:1],4h[4:1],
{4}5<1[4:1],1>5[4:1],5<1[4:1],1>5[4:1],
{4}5<1[4:1],1>5[4:1],5<1[4:1],1w5[16:3],
{8},,,,2/5,3,7/4,6,
{2}2-4[8:1]/5-1[8:1],8-6[8:1]/5-1[8:1],
{8},,1/5,2,3/8,7,2/6,3,
{2}4q8[8:1]/5-7[8:1],5p1[8:1]/4-2[8:1],
{8},,1/2,8,1/7,2,3/8,4,
{2}5v8[8:1]/7v8[8:1],4v1[8:1]/2v1[8:1],
{8}6p2[8:1]/5-2[8:1],6/5,,,6p1[8:1]/5p1[8:1],6/5,,,
{8}7v1[8:1]/5-1[8:1],7/5,,,5-1[8:1]/6-1[8:1],,5b/6b,,
{8},,7/1,6,2/5,3,7/4,6,
{2}2-4[8:1]/5-1[8:1],8-6[8:1]/5-1[8:1],
{8},,1/5,2,3/8,7,2/6,3,
{2}4q8[8:1]/5-7[8:1],5p1[8:1]/4-2[8:1],
{8},,1/2,8,1/7,2,3/8,4,
{2}5v8[8:1]/7v8[8:1],4v1[8:1]/2v1[8:1],
{8}3-5[8:1],,5,6-2[8:1],,1,8b-5[2:1]*z4[2:1],,
{4},,,1pp5[2:3]/7qq4[2:3],
{1}1b/7b,
{1},
{1},
E
&inote_6=(180){1},
{8},,,,8<5[2:1]/2h[1:1],,,,
{8},,,,,2/5,,3h[8:3]/4,
{8},,,,4>1[2:1]/6h[1:1],,,,
{8},,,,,6/1,,7h[8:3]/8,
{8},,,,1h[4:1]/6,,7h[4:1],,
{8}3h[8:5],,5,5,,5h[4:1],,4h[8:3],
{8},,6h[4:1],,2h[4:1],,8h[4:1],,
{8}1>7[8:5],,,,,7q6[8:3],,8h[8:3],
{8},,,,5>2[4:1]/7h[8:3],,,,
{8}7,,6,1h[4:1],,5h[4:1],,3h[8:3],
{8},,,,4<7[4:1]/2h[8:3],,,,
{8}2,,3,8h[4:1],,4h[4:1],,6h[8:3],
{8},,1,,2/5,,3h[2:1],,
{8}7V51[4:1]*V51[4:1],,,,4,4,8,8,
{4}2<5[2:1],,5>8[2:1],,
{4}8p3[4:1]*p5[2:1],,,,
{4}2/6,,
{32}1-4[8:1]/5-8[8:1],2/6,,,,,,,1/5,,,,,,,,
{8}7b/3b,,6h[8:1]/4,,6/4,7,6/4,3,
{8}7/4,8,7/4,3,8<5[8:1]/4v3[8:1],,,,
{8}2/6,,3h[8:1]/5,,3/5,2,3/5,6,
{8}2/5-8[8:1],,1>4[8:1]*<6[8:1],,1w5[8:1],,1,,
{8},,7h[8:1]/4,,4/7,8,4/7,3,
{8}4/8,1,8/4,3,2h[4:1],,6,,
{8}7-5[8:1]/8-6[12:1],,7/8,,2-4[8:1]/1-3[12:1],,2/1,,
{8}6-8[8:1]/5-1[8:1],,5/6,,3-1[8:1]/4-8[8:1],,4/3,,
{8}7b/2b,,6h[16:1]/4,3,6/4h[16:1],7,6h[16:1]/4,3,
{8}7/4h[16:1],8,7h[16:1]/4,3,8<5[8:1]/4v3[8:1],,8/4,,
{8}2/6,,3h[16:1]/5,6,3/5h[16:1],2,3h[16:1]/5,6,
{8}2-6[8:1]/5,,8<5[8:1]*>3[8:1]/2,,8w4[8:1],,8,,
{8}2/6,,3h[16:1]/8,7,8h[16:1]/3,4,8/3h[16:1],7,
{8}8h[16:1]/4,5,4h[16:1]/8,7,6h[4:1],,2h[4:1],,
{24}8,7,6,5,4,3,2,1,8,7/3,4,5,6,7,8,1,2,3,4/7pp5[2:1]*pp4[2:1],,,,,,
{1},
{8}1>4[8:1]/4-1[8:1],,1<5[8:3]/4,,5b,4,3,2pp6[8:3],
{8},5,6,7,8b<4[4:1],1,8/4p1[8:3],2,
{8},1,2,3,4b-8[8:1],7<4[8:1],4>6[16:4],7,
{8},5,4,3,2b-4[8:1]/5-1[8:1],,2/5,,
{16}8<5[8:1]/5-8[8:1],,,,8>4[8:3]/5,,,,4b,,5,,6,,7,8,
{16}1,2,3,4,8,1,2,3,4b-8[8:1]/7-5[8:1],,,,7/4,,,,
{8}1h[2:1],,,,7b,1q8[4:1]/8,,8<5[16:3]*>4[16:3],
{8},,,,1b>4[8:1]/6,8,1/6,7,
{8}8<5[8:1]/5v8[8:1],,8>4[8:3]/5,,4b,5,6,7qq3[8:3],
{8},4,3,2,1b>5[4:1],8,1/5q8[8:3],7,
{8},8,7,6,5b-1[8:1],2-5[8:1],5<4[16:5],2,
{16},,4,,5,,6,,7b,,3h[8:1],6,,2h[8:1],5,,
{16}1>4[8:1]/4v1[8:1],,,,1<5[8:3]/4,,,,5b,,4,,3,,2h[1:0],1h[1:0],
{16}8h[1:0],7h[1:0],6h[1:0],5h[1:0],1h[1:0],8h[1:0],7h[1:0],6h[1:0],5b-1[8:1]/2>5[8:1],,,,2/5,,,,
{24}7,6,5,4,3,2,1,8,7,6/3,4,5,6,7,8,1,2,3,4/7pp5[2:1]*pp4[2:1],,,,,,
{1},
{16}3h[8:3],,,,,,5h[4:1],,2,,3,5,
{16},4h[8:1],,6,
{16},,8-4[8:1],,4<7[8:1],,8,,3,,,,2,3,4,5,
{16}7h[8:3],,,,,,1h[4:1],,6,,7,1,
{16},8h[8:1],,2,
{8},,4h[4:1],,7,6,1/5,2,
{16}8<5[16:3]/3h[8:3],,,,,,,,3,2,1,8,5,6,7,8,
{4}4>1[4:1],8,6,4<7[4:1],
{16}1,,2,,3,,4,,5>2[4:1],,,,8,,7,,
{16}6,,5,,1-5[8:1],,5>2[8:1],,1,,,,6,,,,
{16}2h[4:1]/6,,,,,,8,,3/7,,6-3[16:3],4,,3V58[4:1],,1,
{16},,1,,2,,3,,4>8[4:1],,,,1,8,7,6,
{16}5h[8:3],,,,,,8,,1/6,,2-6[16:3],5,,
{16}6V41[4:1],,8h[16:3],
{16},,,,7h[8:1],,,,6,,5,,2>8[16:7],,3,,
{16}7h[2:1],,,,,,,,1,2,3,4,8,1,2,3,
{8}1/4,2,3/6,7,8/5,4,6/3,5,
{16}1,4,1,4,2,5,2,5,3,6,3,6,4,7,4,7,
{4}5bqq1[8:3],8-6[8:1],8b,,
{8}3b/7b,,1-7[8:1],7-1[8:1],1,6,6-2[8:1],2-6[8:1],
{16}6,,3,,3-5[8:1],,5-3[8:1],,3,,,,7,8,2,3,
{8}6b,,8-2[8:1],2-8[8:1],8,3,3-7[8:1],7-3[8:1],
{16}3,,6,,6-4[8:1],,4V61[4:1],,6,,2,,3,,4,,
{16}4h[2:1],,,,2,,,,3,2,1,8,4,3,2,1,
{8}8b-3[8:1]/4b-7[8:1],,8/4,,8-5[8:1]/4-1[8:1],,8>6[16:8]/4,,
{8}4,5,6,7,8>4[8:3],,4,5,
{8}6,7,
{32}8,1,2,3,4,5,6,7,8w4[8:1],,,,,,,,8,,,,,,,,
{16}2b/6b,,,,7-5[8:1]/1,,5,,4-8[8:1]/7,,8,,1-3[8:1]/4,,3,,
{16}1/5,,6,,7-3[8:1]/4,,3,,7/2h[16:3],,,,2,1,5,6,
{16}3b,,,,2-4[8:1]/8,,4,,5-1[8:1]/2,,1,,8-6[8:1]/5,,6,,
{8}8/4,3,2/5,1,4/7,8,2-6[8:1],6qq8[16:5],
{16}2,,,,,,,,5,6,7,1,2,3,6,7,
{4}8<4[4:1]/4-8[8:1],4>8[4:1]/8,8<4[4:1],4>8[4:1],
{1}8b<8[4:5]*z4[8:5],
{1},
{8}8/3,,7/4h[8:1],1,7h[8:1]/4,2,1h[8:1]/6,4,
{8}1/6h[8:1],3,7/4h[8:1],1,
{32}7/4v1[8:1]*v7[8:1],6,5,,,,,,4b,,,,,,,,
{8}2b/5b,,2/5h[8:1],8,2h[8:1]/5,7,8h[8:1]/3,5,
{8}8/3h[8:1],6,2/5h[8:1],8,
{32}2/5,3,4,,,,,,7/4,6,5,,,,,,
{8}4b/7b,,3/8h[8:1],5,3h[8:1]/8,6,5h[8:1]/2,8,
{8}5/2h[8:1],7,3/8h[8:1],5,
{32}3/8-3[8:1]*-5[8:1],2,1,,,,,,8b,,,,,,,,
{8}7-5[12:1]/4V68[8:1],8,7/4,,2-4[12:1]/5V31[8:1],1,2/5,,
{8}6-8[12:1]/5V71[8:1],4,5/6,,3-1[12:1]/4V28[8:1],5,4/3,,
{8}2b/7b,,2/5h[8:1],8h[16:1],2h[8:1]/5,7h[16:1],8h[8:1]/3,5h[16:1],
{8}8/3h[8:1],6h[16:1],2/5h[8:1],8h[16:1],
{32}2/5-1[8:1]*-2[8:1],3/6,4/7,8,1,,,,5b,,,,,,,,
{8}7b/4b,,7/4h[8:1],1h[16:1],7h[8:1]/4,2h[16:1],1h[8:1]/6,4h[16:1],
{8}1/6h[8:1],3h[16:1],7/4h[8:1],1h[16:1],
{32}8/4,7,6,5,,,,,1/5,2,3,4,,,,,
{8}5b/2b,,6/1h[8:1],4h[16:1],6h[8:1]/1,3h[16:1],4h[8:1]/7,1h[16:1],
{8}4/7h[8:1],2h[16:1],6/1h[8:1],4h[16:1],
{32}6/1-6[8:1]*-5[8:1],7/2,8/3,4,5,,,,1b,,,,,,,,
{24}7,6,5,4,3,2,1,8,7,6/2,3,4,5,6,7,8,1,2,3/7pp5[2:1]*pp3[2:1],,,,,,
{1},
{1}2b/6b,
{1},
{1},
E
