&title=カワキヲアメク
&artist=美波
&first=-1.207
&des=DJL2374
&lv_5=13+
&des_5=DJL2374
&inote_5=
(129){4},,,,,,(137)5/6-1[4:1],
6/4-1[4:1],
4-7[4:1],4,1-5[4:1],1/7,
{16}1-5[4:1],8,{8}7,{4}1/5,6-2[4:1],6/5-3[4:1],
5-1[4:1],5,3-7[4:1],3/8-2[4:1],
8,4-8[4:1],{2}4b,
6b,{4}4h[4:1],5h[32:13],
{32},,,,,3h[#2.983195],{4},,,(72){16},
(128){4}B5,B5,B5,(129){32}B5,B6,{16}B7,{8},{16}2/6b,
2b/6-8[16:1],,5/4,,6/2-4[16:1],,1,,2/8,,6,{8}6/4,6/3,
{16}3/7b,3b/7-5[16:1],,8/1,,7/3-1[16:1],,4,,3/5,,7,{8}7/1,7/3,
{16}6b/2b,6b/2b,,3/7-5[16:1],,8/4-1[16:1],,7,,4,,{32}2/6,3/7,{4}4h[8:1]/8h[8:1],
{8}7b/3b,2b/6b-2[16:5],{32},,,3b,,,,,,4b,{8},{16}3b-1[0.5233##0.1163],{32},,,,,,,7/3,
6,5,,,,2,3,4,,,,6,5,4,{16},,,5-7[16:1],4,5,4,5,{32}4,3,
2,1,,,,7,6,5,,,,2,3-7[16:1],4,{16},,,{8}3,{32},,,,,8-4[16:1],,,,7-3[16:1],
,,,8,,,,7,,,,4,,,,4,,5-7[16:1],,5,,4-2[16:1],,,,5,,4,,4,
,7,,8-4[16:1],,,,2,,8,,8,,3-1[16:1],,5,,6h[16:3],,3,,3,,,,,,,,6-2[8:1],,,,2-6[8:1],
,,,6,,,,3,,,,3-8[8:1],,,,,,,,3/7-4[8:1],,,,,,,,7,,,,,,,,1v4[8:1],
,,,5v8[8:1],,,,1-3[8:1],,,,5-7[8:1],,,,1,,,,5,,,,3,,,,3<7[4:1]/7>3[4:1],
,2/6,,1/5,,8/4,,7/3,,,,,,,,,,,,5-7[16:1],,,,5,,4,,5,,{64}4-8[16:3],3,
2,1,{32}8,,,,,,4,,,,,,1,,,,,,,,7-5[16:1],,,,7,,2,,7,,,,3h[16:3],
,,,,,4,,,,,,3/5-1[4:1],,,,2,,,,5/1-7-5[4:1],,,,2,,,,3,,,,4,
,,,3,,,,3/7,,2/6,,1/5,,8/4,,7,,6,,5,,4h[16:1],,,,,,4,,6,
,4,,6,,3,,7,,3,,7<4[16:3],,4,,4,,,,4/7,,3,,2,,1,,,,3,,5-7[16:1],
,3,,5,,,,5,,3,,2-5[8:1],,8-5[8:1],,2,,8,,2,,8,,,,,,,,1/5-1[8:1],,,,5/1-5[8:1],
,,,5<1[4:1],,,,2,,,,1>5[4:1],,,,,,,,5-7-1[4:1],,,,,,,,1,,,,,,,,2-4[8:1],
,,,2-8[8:1],,,,2-6[8:1],,,,2,,,,2,,,,,,7,,7,,,,4,
,,,,,,,2,,2,,4,,4,,3,,3,,5,,5,,4/6,,3/7,,2b-5[8:1]/8b-5[8:1],{4},,{16},,,{32},6h[2:1],
,,,3,,,,4,,,,3,
,,,2,,,,5/1,,,,5/1,,,,4/8,,4/8,,5/1,,5/1,,6/2,,7/3,,7/3,,8/4,
,4-2[16:1]/8-6[16:1],,,,5/1,,,,4/8,,,,,,,,5,,,,5,,3,,6,,3,,6-1[16:1],,,,7bx/2-5[16:1],
,,,3bx/6bx,,,,2bx/8-4[16:1],,,,7bx/3-1[16:1],,,,2bx/8bx,,,,3bx/5bx,,,,4,,,,5/2,,5,
,5/2,,5,,5/1,,5,,{64}1b,8,7,6,{32}5,,4h[16:1],,,,4,,,,5,,,,4,,,,6,,,,4-8[16:1],
,,,3,,6,,4-7[16:1],,,,5,,2,,4-1[16:1],,,,3,,8,,4,,8,,,,,,8-4[16:1],
,,,7,,2,,8-3[16:1],,,,1,,6,,8-5[16:1],,,,7,,2,,8,,2,,,,,,1/5,
,2/6,,7/3,,4/8,,5/1-5[16:1],,,,2/4,,,,1,,,,4-8[16:1],,,,6/3,,,,4,,,,7bx/1h[16:1],
6,5,,2bx/8h[32:3],3,4,5,6b,7,8,1b,2,3,4,,6-1[16:1],,4,,7,,4,,6,,,,3-8[16:1],,,,2,
,,,3/7-4[16:1],,,,6,,,,7/3-7[16:1],,,,2,,,,3,,,,6,,,,1,,,,7,
,,,6,,2,,6,,2,,6,,,,1,,,,5,,,,{64}8b,1,2,3,{32}4,,6-1[16:1],,,,7bx/2-5[16:1],
,,,3bx/6bx,,,,2bx/8-4[16:1],,,,7bx/3,,,,2bx/8bx,,,,3bx/5bx,6,7,8,1,2,3,4,5,6,7,
8,1b/5b,4,3,2,1,8,7,6,5,4,3,,,,,,7<4[16:1],,,,,,,,{64}7/4b,3,2,1,{32}8,,,,,,1,
,5,,1,,,,6/2,,,,1,,,,7,,8,,7,,,,8,,1,,8,,,,2,
,1,,2,,,,8,,7,,8,,7,,8,,7h[16:1],,,,{64}8b,1,2,3,{32}4,,,,5w1[16:1],,,,4/6,
,,,5,,,,,,,,1w5[16:1],,,,2/8,,,,1,,,,,,,,6-2[16:1],,,,3-7[16:1],
,,,6,,,,3,,,,1,,,,8,,,,,,,,1,,,,,,{64}1b,2/8,
3/7,4/6,{32}5b,,,,,,,,,,,,5,,3,,6,,4,,5,,4,,5,,3,,6,,4,
,5,,,,4,,,,5w1[16:1]*-1[16:1],,,,5,,,,5,{16},,,{4}5b,
{8}6-1[16:1]/2-5[16:1],7/3,{4}6/2,
E
