&title=LOVE 2000
&artist=遠野ひかる
&first=0
&des=woxxow
&lv_5=❤
&inote_5=(170){1},
{8}3h[8:1],,3h[8:1],,3h[8:9],,,A4,
{8},B5,,B3,,B8,,4,
{8}6h[8:1],,6h[8:1],,6h[8:9],,,A5,
{8},B4,,B6,,B1,,,
{8}3h[8:1]/5h[4:1],,,3h[4:1],5h[8:9],,,4,
{8},6,,3,,7,,1,
{8}6h[8:1]/4h[4:1],,,6h[4:1],4h[4:1],,,5,
{8}46,46,,28,28,4,7-3b[8:1],,
{8}7b/8bq1[8:4],,,,4,,5,5-2[8:1],
{8},3h[4:1],,1-5[8:1],,7h[4:1],,4,
{8}8q1[8:4]/3h[4:1],,,,3,,2,2-4[8:1],
{8},6-4[8:1],,1V37[4:1],,3,,,
{8}1bp8b[8:4]/6bh[4:1],,,,6,,4,4^1[8:1],
{8},2h[4:1],,8-5[8:1],,6h[4:1],,4,
{8}36,27,1^4[8:1],8^5[8:1],1p8b[8:4],8q1[8:3],,,
,,{16},,,,{8}7h[8:1],5h[8:1],4h[8:1],2h[8:1],
{16}1bx^6[8:1],,,,4x^1[8:1],,4-6[8:1],,,,,,1x,,,,
{16}5x^8[8:1],,,,2x-4[8:1],,2-6[8:1],,,,,,5x,,,,
{16}7x^4[8:1],,,,3x-8[8:1],,3pp4[32:8],,,,,,,,1,,
{16}1b-3[8:1]*-5[8:1],,,,,,,,6b-8[8:1]/4b-8[8:1],,,,,,,,
{16}2^5[8:1]/6,,,,1,,8,,4^1[8:1],,5,,6,,,,
{16}7^4[8:1]/3,,,,8,,1,,5^8[8:1],,4,,3,,,,
{16}1qq4[8:4],,,,4,,4,,,,6,,,,8,,
{16}17,,17,,2h[4:1],,,,4,,5/3,,7,,6/5,,
{16}6/5bx-2[8:1],,,,7x-4[8:1],,7^2[8:1],,,,,,5x,,,,
{16}1x-4[8:1],,,,5x^8[8:1],,5^2[8:1],,,,,,1x,,,,
{16}3x^8[8:1],,,,7x-4[8:1],,7pp7[32:10],,,,,,,,6,,
{16}6b-4[8:1]*-3[8:1],,,,,,,,1b-7[8:1]/2b-7[8:1],,,,,,,,
{16}6^3[8:1]/5,,,,2,,1,,4-1[8:1],,2,,3,,,,
{16}3^6[8:1]/8,,,,7,,8,,5-8[8:1],,7,,6,,,,
{16}5qq8[8:4],,,,8,,8,,,,2,,,,4,,
{16}1h[8:1],,3,,1h[8:1],,5,,8,5,7,5,6-3[8:1],,,,
{16}1b,,,,2,,4h[8:3],,,,,,3,,,,
{16}6,,4h[8:2],,,,3h[8:2],,,,2,,4,,,,
{16}1/8,,,,7,,5h[8:3],,,,,,6,,,,
{16}3,,5h[8:2],,,,6h[8:2],,,,7,,5,,,,
{16}1/8,,,,3,,4h[8:3],,,,,,5,,,,
{16}7,,7h[4:1],,,,6h[4:1],,,,5,,3,,,,
{16}8V62[8:3]/4,,,,1,,1,,,,3,,3,,,,
{16}1q6[8:2]/8,,,,5,,5,,,,7,,7,,4,,
{32}A8,E1,,,,,,,{16}2,,4h[8:2],,,,3,,52,,,,
{32}A7,B7,,,,,,,{16}4,,4,,5,,3,,42,,,,
{32}A1,E1,,,,,,,{16}7,,5h[8:2],,,,6,,6,,3xq6[8:5],,
{16},,,,6,,,,8,,,,7,,,,
{32}E8,B7,,,,,,,E2,B2,,,,,,,{16}6,,6^3[32:5],,,,2h[8:3],,
{16},,,,1-6[8:1],,3,,5,,,,2-5[8:1],,7,,
{16}8h[4:1],,,,6,,6,,8,,2,,2,,,,
{16}1h[4:1]/5,,,,3b,,2,2,8h[8:3],,5,,5,,5,,
{32}7xbpp2[16:8],6x,5x,,{16},,2,,2,,,,,,4,,,,
{32}3xqq7[2:1],4x,5x,,,,,,{16}6,,6,,,,,,8,,,,
{32}6xpp3[2:1],5x,4x,,,,,,{16}2,,2,,,,,,1h[1:1],,,,
{16}B4/A4/E5,,B4/A4/E5,,,,E2,,,,A7/B7/E7,,A7/B7/E7,,,,
{32}2xqq7[16:8],3x,4x,,{16},,7,,7,,,,,,5,,,,
{32}6xpp4[2:1],5x,4x,,,,,,{16}3,,3,,,,,,1,,,,
{32}3xqq5b[2:1],4x,5x,,,,,,{16}7,,7,,,,,,8,,8,,
{16}3b/7,,2/6b,,1b/5,,,,2x,4x,5x,7x,1,,8,,
{16}3bx^6[8:1],,,,7x-2[8:1],,8-5[8:1],,,,,,3x,,,,
{16}2x^5[8:1],,,,6x-2[8:1],,8-4[8:1],,,,,,1x,,,,
{16}1x-4[8:1],,,,4xv2[8:1],,6<2[32:8],,,,,,,,5,,
{16}5b-2[8:1]*-3[8:1],,,,,,,,7b-5b[8:1]/8b-5b[8:1],,,,,,,,
{16}1^6[8:1],,,,5,,4,,8-3[8:1],,5,,7,,,,
{16}8^3[8:1],,,,4,,5,,1-6[8:1],,4,,2,,,,
{16}1xqq2[32:16],,,,4x<2[32:8],,4x,,,,,,,,,,
{16}28,,28,,3h[4:1],,,,5,,46,,8,,57,,
{16}2/1bx^6[8:1],,,,5x-8[8:1],,3-6[8:1],,,,,,7x,,,,
{16}8x^5[8:1],,,,4x-7[8:1],,2-6[8:1],,,,,,8x,,,,
{16}7x^4b[8:1],,,,3x-8b[8:1],,2pp1b[16:5],,,,,,,,{24}7bx,6x,5x,
{16}4x-8[8:1],,,,Cf,,,,2,,35,,46,,7,,
{16}1bxv6[8:1],,,,5,,4,,8>4[32:6],,5,,5,,,,
{16}7q3[8:1],,,,4,,5,,2<6[32:6],,4,,4,,,,
{16}1xqq4[32:15],,,,6x<3[32:7],,6x,,,,,,,,,,
{16}2h[4:1]/8,,,,4b,,3,3,7h[8:3],,8,,8,,8,,
{16}2<6[4:1]/6,,,,6>2[4:1],,,,2,,8,,6V82[4:1],,,,
{16}2V46[4:1],,,,6V82[4:1],,,,2,,4,,6,,,,
{16}28,,4,,6,,17,,5,,3qq5b[8:15],,45,,6bpp4[8:13],,
{16},,,,,,,,,,,,,,,,
