&title=All We Need is HAPPY END!!!
&artist=polysha
&first=0.01
&des=開脆兔Rabbit
&clock_count=4
&lv_5=14
&inote_5=(260)
{1},
{8}
,,,,6,4,5,3,7,2q5[8:9],,C,,,,,,,,,,,8,7,6,5q8[8:9],,C,,,,,,,,,,,3,5,4,6p3[8:7],,C,
,,,,,,,,
2,,3,,4h[8:3],,,8h[8:3],,,Chf[8:10],,,,,,B2,,B7,,
{16}
6h[4:2],,,,,,,,,,,,4x,5x,4x,5x,4xh[16:11],,,,,,,,,,,3x,4x>5[8:7],3x,4x,3x,
4x,,E3,,E2,,E1,,E8,,E7,,E6,,E5,,B2/B1/E2,,4,,3,,B7/B8/E8,,5,,6,,1,2,3,4,
5bqq5[8:10]*pp5[8:10],,,,,,,,,,,,,,,,,,,,,,,,,,,,,,,,
6bpp4[8:7]/3bqq5[8:7],,,,,,,,,,,,,,,,,,,,,,,,E7/B6,,,,B3/E3,,,,
82,,8-4[8:1]/2,,,,2-5[8:1],,,,7-4[8:1],,,,1-5[8:1],,,,6,,6V84[8:3],,,,2-4[8:1],,,,2,,,,
5,,5V74[8:3],,,,2-4[8:1],,,,2,,,,5x/3x,,5xb/3xb,,,,,,,,,,,,1,,2,,
{8}
3-1-4-2[4:3]/Ch[4:4]/B7,,B8,,B7,,B8,,,,24,,35,,46,,
6-8-5-7[4:3]/Ch[4:4]/B2,,B1,,B2,,B1,,,,75,,64,,53,,
1q4[8:5],,,5,,7,,6,
{16}
,,E8,,E7,,6x,5x,4x,3x,2xpp5[8:7],1x,8x,7x,6xb/2b,,,,,,,,,,,,,,,,,,
{8}
E8,E3,E6,E4,E7,E2,C,,
4xh[4:3]/5x,,,B2/E3,,,E7/B7,,,,7,1,8,2,6,3,5,4,4,4,3V57[16:12]*V14[16:12],,,,,,,,,,
7-4[4:1],,4-6[8:2],,2,2V41[8:5],,5x,,6x,,,7x,,,,2,6,3,5,4,6,5,7,6,8z4[4:2],,,C,,,,,,
5xh[4:3]/4x,,,B7/E7,,,E3/B2,,,,2,8,1,7,3,6,4,5,5,5,6-8[8:2]*-3[8:2],,,,,,
7,6,5,2,3,4,6x,3,5,3x,6,4,6b,B4/B3,5,3b,B6/B5,4,Ch[1:1],,B2,B7,,,,,
{16}
1,2,3,4,5,6,7,8,
{16}
1h[8:5]/5,,,,B5,,B6,,,,8,7,6/B1,,,,3,,5,,4h[4:1],,,,6h[8:3],,,,,,3,,,,,,B6/B3,,,,C,,,,,,,,
7h[8:5]/4,,,,B4,,B3,,,,1,2,3/B7,,,,6,,4,,5h[4:1],,,,3h[8:3],,,,,,6,,,,,,B3/E6,,E7,,E8,,,,,,
2,3,Ch[4:3]/4,,,,B7,,B2,,,,2/B7,3/B8,4/B1,,,,6,,4,,5h[4:1],,,,Ch[4:3],,,,,,6,,,,,,B1/7,,6,,5,,,,
B3/E4,,B6/E6,,
1x/5x,2,3,4,5,6,7/C,8,1,2,3,4,8x/5x,7,6,5,4,3,2/C,1,8,7,6,5,
1,2,3,4,8,7,6,5,
1x/4x,2,3,4,5,6,7/C,8,1,2,3,4,8x/5x,7,6,5,4,3,2/C,1,8,7,6,5,
1,2,3,4,8,7,6,5,Ch[8:3],,,,,,B7/B2,,,,
74,,63,,5b/2b,,,,74,,63,,5b/2b,,,,74,,63,,5bh[8:4]/2bh[8:4],,,,,,,,,,,,
61,,72,,83,,,,E6,,E4,,E8,,E2,,B6/E7,,B3/E3,,C/B8/B1,,
{8}
2x-5[16:1],,7x-3[16:1],,1-4[16:1],,6-3[16:1],,1-6-2-5[8:5],,6-1[4:1]*-1[4:1],,,,,,
7x-4[16:1],,2x-6[16:1],,8-5[16:1],,3-6[16:1],,8-3-7-4[8:5],,3-8[4:1]*-8[4:1],,,,,,
6x-4-7-3[8:5]/Chf[4:3],,B2,,B1,,B8,,4x-6-8-4[8:5]/Chf[4:3],,B2,,B1,,B8,,
5v8[8:1]/1v4[8:1],,,,7,5,6,4h[8:6],,5,,1,,5,,2,
Ch[8:4],,1>5[8:3],,B7,B8,B1,B2,,35,,46,,7,6,5,
Ch[8:4],,8<4[8:3],,B2,B1,B8,B7,,64,,53,,2,3,4,
8,8-4-6[8:3],,4-2[8:1],,,,7,7h[4:1],,1,1bh[8:3],,,
{16}
5,6,7,8,
{8}
1,1-5-3[8:3],,5-7[8:1],,,,2,1,8h[4:1],,2b,,,,,
{16}
1h[4:1],,,,7,6,5,4,1,2,3,4,7,8,1,2,4,3,2,1,87,6,5,4,8,1,2,3,45,6,7,8,
2,1,2,1,2,1,2,1,2,1,2,1,2,1,2,1,
2x,3x,4x,5x,E2/6x,E3,E4,E5,Ch[4:1]/E6,E7,E8,E1,,,,,
{8}
2x,4x,3x-7-4[8:3],,5-8[8:1],,5,,7x,5x,6x-2-5[8:3],,4-1[8:1],,4,,
7x-3[8:1]/1x-5[8:1],,,,6,2,7,1h[4:2],,8,,6,,,45,,
2h[4:1],,6,3h[4:1],,7,4,8,3,3,4,4,5,5,6,6,
8-4[8:1],7-5[8:1],8,7,,,2-4[8:1],1-5[8:1],2,1,,,3,4,5,6,
7h[8:3]/Chf[4:16],,B2,B2,,6,6,5,5x,B1,6x,B1,7x,B1,8x,B1,
8h[4:1],,,7h[4:1],,,6h[4:1],,,5h[4:1],,,4h[4:1],,,,
B7/B2,,,2,2h[8:3],,,5,5h[8:3],,,3,3h[4:1],,6,4,
{16}
8,7,6,5,2,3,4,5,7,6,5,4,1,2,3,4,6,5,4,3,2,1,8,7,62,3,4,5,6,7,8,1,
Ch[8:4]/2bh[2:1],,,,,,B7,,B7,,,,,,,,Ch[8:4]/7bh[2:1],,,,,,B2,,B2,,,,,,,,
63,,,,,,,,7,,5,,6,,B2,B3,B4,,5,,3,,4,,1,,2,,3,,4,,
{8}
5/7b-4[175#12:1],,,7b/2b-7[175#12:1],,,2b/5b-8[175#12:1],,,5b/4b,,,7/8b,,1b/2,,
{16}
3b,4,3b,4,,,6b,5,6b,5,,,2b,3,2b,3,,,7b,6,7b,6,,,1,2,3,4,5,6,7,8s4[16:25],
{1}
1z5[4:6],,
5-7-3[2:3]/1-3-7[2:3],,
{8}
2,E6,2,E7,2,E8,2,E1,4,E2,4,E1,4,E8,4,E7,
4h[4:1],,
{32}
8,1,2,3,4,5,6,7,
{8}
8xh[8:3],1x,2x,3x,
{16}
6,,4,,5,,
{32}
1,2,3,4h[32:9],,,,,,,,,7b,,,,,,,,
{8}
2-5[16:1],6,2,7-4[8:1],3,7,3-1[8:1],3,7x-5[8:1],7,2x-8[16:1],2,6x-4[8:1],6,1x,1,
6b,4,5,3h[8:3],,,7b,1,8,2h[8:3],,,
{32}
8,7,6,5,,,,,1,2,3,4,,,,,
{8}
8-4[8:1],,3,3>1[8:2],,6,7,8,3,4,2,7,5,6,2,7,
{12}
4b,5,4,6,4,7,4b,6,4,7,4,8,
4b,8,3,8,2,8,3b,8,2,8,1,8,
{1}
1b<5pp5b[4:14]*>5qq5b[4:14],,,,
{16}
7,,7-5-1[8:3],,,,2-4[8:1],,,,2-6[8:1],,,,8-4[8:1],,,,5,,5-2[8:1],,,,7-4[8:1],,,,7,,,,
{32}
E1,E2,E3,E4,E5,E6,E7,E8,,,,,7x,6x,5x,4x,,,,,1x,2x,3x,4x,,,,,Ch[8:3],,,,
{16}
,,B7/B2,,B8/B1,,,,6b/3,,6/3b,,5bz1[1:1]/4s8[1:1],,5/4b,,
{1},
E
