&title=日本の九月の気層です
&artist=笹川真生
&first=0.15
&des=caIpis
&des_5=
&clock_count=4
&lv_5=13
&inote_5=(88){4},,,,{16},,,{48},B7,
B6,{4}B5,,,,{48}B8,
B7,{24}B6,{4},,,{16},,{24},{48}B4,
B5,{24}B2,{4},,,{16},,{24},{48}C,
B8,{24}E3,,,,,,,,,,E2,,,,,,1h[48:1],
{48},,,,,,,,,,,,1x,8x<5[4:3],{4},,,{16},,,{48},{4}1-4[4:3],
,,,5-8[4:3],
,,,1h[#2.363636],
{24},,,,,8h[#1.113636],(105){4},
{16},,,,,1/8,{8}1h[8:1]/8h[8:1],{16},8x/1x,{32}1x,8x,{16}1x,{8}7bx/2bx>4[8:1],6,
{16}5h[8:1],,,2>5[8:1],,,{8}7,6,6h[4:1],1>5[8:1],1,
{4}7h[8:1],{8}8h[4:1],7,6h[4:1],5,4<7[8:1],3,
{16}2h[8:1],,,3<7[8:1],,,{8}2,,1,1h[8:1],2-4[8:1],
8-6[8:1],2x,8x,1h[8:1],{4}5-1[8:1],5b,
{16}8/2,,,3,5,4,,4/5,,,{8}3,{12}B2,B8,E7,
{8}5xh[4:1],{16}4,4,3,5,,6/4,,,{8}7,6-1[8:1],{16}4,3,
,,{8}4h[8:1],5-1[8:1],{16}3,2,,,{8}3h[8:1],7-4[8:1],{16}3,2,
,,{8}3h[8:1],6,3,{16}2/6,{32}4,5,{16}3,6/2,{4}7/8-5[8:1],
8/4h[16:3],{16}5,3,,3xp1[16:7],,,{8}8,{4}8h[8:3],
{8},,7/2,6/3,{4}5h[16:1]/4h[16:3],{48}B8,B7,{24}B2,,{8}5xh[16:5],
{16}3,3,,4,,4,{8}5,{16}3/6,{32}4x,5x,{16}4xh[48:1],3x/6x,6h[16:9]/3h[8:1],,,3,
,3,,3h[8:1],{32},,,,4,5,{16}4,6h[16:1],5h[16:1],4h[16:1],3,{8}4bx-2v8[8:1]/3bx-7[8:1],6bx/5bx,
,,6h[16:3],{16}5,4,,4,,2h[4:1],,4,,5,
,7,4,5,{8}3h[16:3],{16}5,5,,6,6h[16:3],1,,8-4[8:1],,1/7h[4:1],
,,,,{8}3xh[16:5],{16}6,5,,5,4,2,,3h,,6/5,
,7h[8:1],,8,{8}8,{16}8,1/7qq5[8:1],,6/2,,3h[16:5],,,,4,
4-7[8:1],3,,,{8}2,{16}2,2h[8:1],,7,,8/7h[4:1],,6,,5,
,4,5,3,{8}2h[8:1],{16}6,5,,4/3,,1xh[16:3],,,{8}8,
{12}B7,E6,D5,3b,{24},{8}2h[8:1],5,{16}5h[16:3],4,,4,{8}5<8[8:1],
,5,4,{16}4,8,,7/3,,6/2h[4:1],,,,4x,
3x-7[8:1]*qq4[8:7],2x,,,,,,,,,,,{4}5<8b[8:1],
{8},,7b,7bh[8:7],{24}6x,5x,4x,3x,2x,1x,{16}8x,{32}6x,5x,4x,3x,2x,1x,
{24}8x,{48}6x,5x,4x,3x,2x,1x,8x,6x,5x,4x,{8}3bx<1q2[8:5],3bxh[4:3],,,,,,,4bx>6q5b[2:1],
4bxh[8:5],,,,,,3x,
{16}1x,2x/8x,,7x,{8}6x/8x,{16}4x,5x/3x,,5x,{8}6x/4x,
{48}3bx,2bx,{24}1bx,{48},,{16}7,7,{8}4h[4:1],3,5h[8:1],{16}6,7,{8}1h[8:1],4,
{16}5/6,3,,3,{8}4/5h[4:1],6,3,{16}2,4,{12}E3,B5,B1,
{8}7xh[4:1],{16}6,5,{8}4,{16}4,4h[16:3],{8}7,5h[8:1],{12}2,4,3,
7,5,6,{48}3x,,,4x/1x,,,,,,{16}6x,{8}5x/8x,{16}5x,3x/4x,,1x/8x,{8}2x,
{32}7x/3x,6x/4x,{16}5x-1[16:91],{1},,,,,,{8},{4}B6,
{8},E8,B1/B2,B1/B2,
,E6,,,,,3,4,
5,6-3[8:13],{4}6h[4:1],,5h[4:1],
,4h[4:1],{1},{16},,,{48},2x,
3x,{8}4xh[4:1],{16}6,6,
,7h[8:1],5,3,,4/5,,6/7,,8/1,8,1,1,2/8,,2/8,
{8}4,{48}E8,B7,B6,4xh[16:3]/E6,,,,,,{16}8,{8}8,{16}2,6,3,5,{8}4bp1[4:1],4b,
,,8h[16:5],{16}1,1,,3h[8:1],,5h[8:1],,4,,3/6h[16:3],
,8,8,8,{8}8h[16:3],{16}5,6,,7/5,4,3pp7[16:5],,5,,3,
,,,8,{8}1h[16:3],{16}7,7,,5/4,,3/2,,4/6,,5/3h[8:1],
,7h[8:1],,6,8h[8:1],,,1/7qq5[8:1],,6/2,,3h[16:5],,,,4,
4v7[8:1],3,{48},,,,1x,2x,{8}3x-5[8:1],{16}2,2,,7,{48},,,,8x,7x,{8}6x-4[8:1],{16}7,7,
,2,,1,{8}1h[16:5],{16}3,4,,5h[8:1],,3h[16:3],,,{8}6xq8[2:1],
3,{16}1,1,,,,,,,2,2h[16:5],,,{8}8h[8:3],
,5h[8:3],,4h[8:1],,3/4<7[8:1],4,3,
2,{16}2,2pp5[16:13],,,,,,,,,,,,,,,{8}7,
{4}7-4[4:1],{8},1,{4}1q4[1.1429##9.1429]*q4[1.1429##9.1429],
E
