&title=Quon
&artist=DJ Noriken
&first=0
&des=Guilty
&lv_5=14
&inote_5=(170)
{2},{16}4,5,4,5,{4}B2/B3/E3,{8}7/5,6,8/5,6,7/5,6,7/4,6/3,2/5,3,1/4,3,2/4,3,1/4,2/5,3/6-1[8:1],6,4-8[8:1],4,7-3[8:1],7,2,2,{16}1x-5[8:1],8x,1x,,{8}1/8-4[8:1],7,8/2-6[8:1],3,2/5,,{4}5x<3[2:1],C,C,C,4x>6[2:1],C,C,C,{16}5,4,5,4,6,3,5,4,6,3,5,4,{32}6x,7,8,1,2,3,4,5,{8}6b/2b,8b/4b,1b/5b,3b/7b,5b-8[8:1]/4b-1[8:1],,{64}E5,C,E1,,,,,,{8},3h[2:1]/6,,2,1,{2}8h[2:1],{8}6,5,4h[4:1],,8,1/3,8,7/5h[8:3],,,6,7,{2}8h[2:1],{8}1,2,3,4,5/3,6,7/2,8,6h[2:1]/1,,7,8,{2}1h[2:1],{8}3,4,5h[4:1],,1,8/6,1,2/4h[8:3],,,3,2,{2}1h[2:1],{8}8,7,6,5,4/6,1x,1x,,{4}2>7[2:3]/1,1,1,1,1,8,8,8,8<3[2:3]/1,1,1,1,2,2,2,2,2x<5[2:3]/1x,3,3,4,4,3,3,3,2-7[8:1]/4-8[8:1],2/4,6-1[8:1]/5-1[8:1],6/5,{16}4,5,4,5,{8}3/6,2,1/7,E3/B3/E4/E7/B6/E6,E8/B8/B1/E2,,7^2[8:1]/5,,5,,4,{16}3,5,,5,3,,{8}2^7[8:1]/4,,4,,5,{16}6,4,,4,6,,{8}7^2[8:1]/5,,5,,4,{16}3,4,,6,5,,{8}2^7[8:1]/4,,4,,5,{16}6,5,,3,4,,{16}2,7,2,7,5,7,5,7,2,7,2,7,2,4,2,4,2,7,2,7,5,7,5,7,2,7,1,6,8,5,1,6,{1}2b-6[1:1],{2},{4}4w8[8:1],4b,E6/B5/B4/E4,
{16}3x,6,5,6,3,5,4,5,2,4,3,4,1,5,4,5,3-5[8:1],6,5V38[8:2],6,{2}3,{8}2/6,,{16}3,6,5,6,8,5,4,5,2,4,3,4,8,5,4,5,3qq8[8:3],6,5,6,{2}3,{4}2/5,{16}6,3,4,3,6,4,5,4,7,5,6,5,8,4,5,4,6q1[8:3],3,4,3,{2}6,{8}3h[8:1]/4-8[8:1],5,6,6-2[8:1],7,8,1,,3/4,2/5,5/6,7/4,1-4[8:1]/8-5[8:1],,1b/8b,,{4}2/7,{16}3,4,2,5,4,6,4,5,3,6,5,7,4,5,3,5,4-8[8:1],6,3,,4/2,,,,{32}2,3,4,5,6,7,8,1,{4}2b/6b,{16}3,4,2,5,4,7,4,5,{4}2b,{4}1,1w5[8:1],1b,2/7,{16}6,5,7,4,5,3,5,4,6,3,4,2,5,4,6,4,5-1[8:1],3,6,,5/7,,,,{32}7,6,5,4,3,2,1,8,{4}7b/3b,{16}4,5,4,5,3,6,3,6,2,7,2,7,1,8,1,8,{8}2/7,E1/E5,3/6,B8/B1/B5/B4,3h[64:15]/6h[64:15],,{64}2x/7x,1x/8x,,,,,,,{8},E4,B2/B5,E8,B1/B6,B2/B3,B5/B4,B7/B6,B8/B1,E1,E8/E2,E7/E3,E6/E4,E5,1x,1x,,2hx[8:1],,2^5[8:1],5,6/2b,7,8,1,2/7,3,4-1[8:1],5,6/4,7,8,1,2/8,7,6-1[8:1],5,4/6,3,2,1,8/3,7,6v1[8:1],5,4/6,3,2,1,8/3-8[8:1],4,5-2[8:1]/3x,6,7/5x,8,1/6,2,3/7,6,5-8[8:1],4,3^6[8:1]/5x,2,1/3x,8,7/1,2,3/5,4,5/8,7,6/4,5,4,2/5,6,7/3,1b-5[8:1],8b,8b/1b,,
3h[8:1]/6,,{16}3h[8:1]/5,,5,,3h[8:1]/5,,,4,3h[8:1],,5,,3h[8:1]/6,,6,,3h[8:1]/7,,7,,3h[8:1]/8,,,1,3h[8:1],,1,,8h[8:1]/3,,,,8h[8:1]/4,,4,,8h[8:1]/4,,,5,8h[8:1],,4,,8h[8:1]/3,,3,,8h[8:1]/2,,2,,8h[8:1]/1,,1,,8h[8:1]/2,,2,,1,7,1,7,2,6,2,6,3,5,3,5,4,6,4,6,3,7,3,7,2,8,2,8,1,7,2,6,3,5,4,6,{32}3,2,1,8,7,6,5,4,3b/7b,,,,,,,,6,7,8,1,2,3,4,5,6b/2b,,,,,,,,{16}1-5[8:1],1,1,,{8}1b/8-4[8:1],7,8b/2-6[8:1],3,2b/5,,3/4,1/7,1h[8:1]/7h[8:1],,6/5,8/2,8h[8:1]/2h[8:1],,5b/4b,2b/7b,3b/6b,1b/8b,4b-8[8:1]/5b-1[8:1],,{64}4b/5b,B6/B3,Cf,B7/B2,,,,,{8},
2-5[8:1],5V38[4:1],2,6,7-3[8:1],7,7/1-5[8:1],2,1/8-4[8:1],7,8/2xV83[8:1],3x-7[8:1],2x/7-4[8:1],,,,6-2[8:1],2V86[8:1],6,3,4-8[8:1],3,4/5-1[8:1],6,5/2-5[8:1],3,6^1[8:1]/2,7,6-2[8:1],4x,6x,1x,7x-4[8:1],4V61[4:1],7,3,2-6[8:1],2,2/8-4[8:1],7,8/1-5[8:1],2,1/7xV16[8:1],6x-2[8:1],7x/2-5[8:1],,,,{16}3x/4x,,3,4,2b/5b,,,,6,5,6,5,7b/4b,,,,{8}1b/8b,3b/6b,2b-5[8:1]/7b-4[7:1],4bV61[8:1]/5bV38[8:1],2b/7b,,,,
{16}2x^7[8:1],,8,8,2^5[8:1],,4,4,{8}2-6[8:1],6,2b,8b,{16}7x^2[8:1],,1,1,7^4[8:1],,5,5,{8}7-3[8:1],3,7b,1b,4/5-7[8:1],6,4-8[8:1]/5,3,4/5,7,1-3[8:1],8-6[8:1],1-5[8:1],8-4[8:1],1,8,2b,1b/8b,1b/8b,,2v5[8:1],5V38[8:1],2,6^1[8:1],7,6/3x-8[8:1],4x,3x,7v4[8:1],4V61[8:1],7,3v8[8:1],2,3/6x,5x,6x,{16}2,1,2,1,{32}2b,3,4,5,{8},{16}7,8,7,8,{32}7b,6,5,4,{8},2b/6b,E1/E5/B1/B5,3b/7b,E5/B4/E4/E8/B8/E1,2b/6b,,{24}2/6,3/7,4/8,5h[64:7]/1h[64:7],,,{64}4x/8x,3x/7x,2x/6x,
