&title=Mirrorwall
&artist=BlackY
&first=0
&des=想看黑Y没抢到音波狂潮的票
&lv_5=14
&inote_5=(144)
{1},
{16}Ch[16:4]/1h[16:12],,,,,,,,5x<8[8:1],,,,5x,,,,
6h[8:1]/5,,8,,4h[8:1]/6,,1,,5h[8:1]/3,,8,,3h[8:1]/4,,1,,
24,,3,5hx[8:1],,4,6hx[8:1],,5-2[8:1],,7V51[8:1],,5,,7,,
3,,2,,18,,7,,4/6h[8:1],,2,,3h[8:1]/5,,7,,
1-7[8:1],,5h[8:1],,1-3[8:1],,4h[8:1],,1V75[8:1],,7,,1/4h[8:1],,,,
1h[8:1]/2,,4,,1h[8:1]/7,,4,,8h[8:1]/2,,5,,8h[8:1]/7,,5,,
68,,7,1hx[8:1],,8,2hx[8:1],,4,4,,5b/7b,,,18,,
3,4,2,5,1,8,2,7,5,6,4,7,1,8,2,7,
{32}3,4,5,6,7,8,1,2,3,4,5,6,7,8,1,2,3-8[8:1]/7-4[8:1],,,,,,,,3b/7b,,,,,,,,
{8}1h[8:1]/5h[8:1],,1h[8:1]/5h[8:1],,2h[8:1]/6h[8:1],,2h[8:1]/6h[8:1],,3h[8:1]/7h[8:1],,3h[8:1]/7h[8:1],,4h[8:1]/8h[8:1],,4h[8:1]/8h[8:1],,5>2[2:1]/1h[8:1],,8h[8:1],,7h[8:1],,6h[8:1],,
{16}78,,{32}2x,3x,4x,,{16}6,6,5,5,74,,,18,,,27,,
3hb[8:1]/5,,4,,6h[8:1],,5,,2,4,2,,5,3,5,,6hb[8:1]/4,,5,,3h[8:1],,4,,7,5,7,,4,6,4,,
5,,5s1[16:6],,1,,1,,A2,,,C,,,A5,,
{32}4bx,3x,2x,1x,8x,7x,6x,5x,4xw8[4:1],3x,2x,1x,8x,7x,6x,5x,4x,,,,,,,,,,,,,,,,
{48}1hbx[48:11]/8hbx[48:20],,,,,,,,,,,,E2,B2,B3,E4,4hx[48:13],,,,,E8,B7,B6,E6,5hx[48:10],,,,,E4,B3,B2,E2,1hx[48:8],,E6,B6,B7,E8,8hx[48:20],,,,,,,,3hb[48:20],,,,,,,,,,,,E8,B7,B6,E6,5hx[48:17],,,,,E4,B4,B5,E6,,,,,,E6,B5,B4,E4,,,1bx/7bx,,,,,,,,,,,,
2bh[48:11]/6bh[48:20],,,,,,,,,,,,E3,B3,B4,E5,5hx[48:13],,,,,E7,B7,B8,E1,1hx[48:8],,,,,E5,B4,B3,E3,2hx[48:13],,E1,B8,B7,E7,6hx[48:29],,,,,,,,E3,B3,B4,E5,,,,,,E6,B6,B7,E8,,,,,,E1,B1,B2,E3,,,{16}3x,4x,5x,6x,7x,8x,1x,2x,
3bx-6b[16:1],,,,3bx/7x-4[16:1],,,7/1-6[16:1]b,,,3b,,4b-8[16:1],,,,45,,6,,7b-4[16:1]/1,,,7/3-7[16:1]b,,2,23,,1,,1/8-4[16:1]b,,6b-1[16:1],,,,2b-5[16:1]b,,,7b-4[16:1],,,3b,,2x,3x,4x,5x,
7h[1:0],8,6h[1:0],1,5h[1:0],2,6h[1:0],3,
{24}7h[1:0],6h[1:0],5h[1:0],1,2,3,8h[1:0],7h[1:0],6h[1:0],2,3,4,
{16}E6,,,,B6,3x,,3x,B7,,4,,E8,3,,3,E6,,4,,B6,3,,4x,B7,,3,,E8/2x,,2x,,
E2,,,,B2,7x,,6x,B3,,5,,E4,6,,6,E2,,6,,B2,7,,6x,4x/5x,3,2,1,8,7,6,5,4x/3x,,
3,,23,,2,,12,,1,,18,,8,,78,,7,,67,,6,,56,,5,,45,,4,,3,3,2,2,1,1,8,8,7,7,6,6,5,5,4,4,3>8[4:1],,,,8<5[4:1],,,,5w1[8:1],,,,{256},Cf,,,,,,,,,,,,,,,{16},,,
{16}1,7,3,5,2,8,5,6,1,4,3,7,1,5,3,8,2,3,4,5,8,7,6,5,8,1,2,3,7,6,5,4,
1,6,3,4,2,7,4,6,2,4,1,7,5,6,1,8,2b-8[8:1],,4,4,2-5[8:1],,7,7,2b<8[8:1],,6,6,2,,5,5,
3,1,2,8,5,7,3,5,2,4,1,8,5,7,2,4,
1b,8,7,6,58,4,3,2,1/5b,4,3,2,14,8,7,6,
5bx-8[8:1]/1bx-4[8:1],,48,,1bV73[16:6]/5b,,,,5-1[8:1],,,,Cf,,,,
2,4,3,3,7,5,6,6,1,8,3,4,1,8,5,6,
{16}2b,2,2h[1:0],2,2hx[1:0],2hx[1:0],2x,2x,
5,3,6,4,7,5,8,4,3/7V15[4:1],,6,,7/5V73[4:1],,,,4h[8:1],,,,2h[8:1],,,,
1bqq6[16:8]/5b>2b[8:1],62,73,84,1/5qq6[4:1],,,,,,,,A6f,,,,
7/2-5[8:1],,1,,2/7V13[4:1],,6,,3V57[4:1]/7,,2x,,C,,,,
2b-6[8:1],,4,4,2>5[8:1],,5-1[8:1],,2/7V53[8:1],,8-4[8:1],,7,,8,,
7,6,5,4,1,2,3,4,7,1,6,8,7,5,6,4,
3b/5b,,{32}7x,6x,5x,,{16}3,3,4,4,2b/5b,,,18,,,27,,
{24}2x,4,2,5x,4,5,3x,4,3,6x,4,6,5x,7x,4x,6x,3x,5x,2x,4x,1x,5x,2x,6x,
{8}3h[1:2]x,,E6,,E7,,E8,,E1,,E2,,E3,,E4,,5h[16:20],,E5,,E6,,E7,,E8,,E1,,
{16}24,,,18,,,27,,3v8[4:1],,3,,5,,5,,6v1[4:1],,6,,4,,4,,
2V48[4:1],,4,,25,,6,,7V15[4:1],,1,,27,,3,,
3,4,2,5,1,6,8,7,5,6,4,7,3,8,2,1,
{16}3,3,4,4,5,5,6,6,8-4[8:1],,,,2b/8b>8>1-4<5-8[16:13],
{16},,,,,,,,,,,,,,,,,,,
{16}1x/8x,,2,4,3,,56,56,,78,,1h[8:1]/6,,4,2,8,57,,4h[8:1],6,,3,5,1h[4:1],,B7,,B3,,2,4,3,
5-1[8:1],,6,,5/8-3[8:1],,6,,8/4-2-5[8:1],,5-1[8:1],,4/E8/B7,,B7/E8,,
6,,3h[16:1],5,,2,1,,7-3[8:1],,1-5b[8:1],,7,,1,,
6b,,3,4,2,,18,18,,46,,2h[8:1]/5,,8,3,5,46,,1h[16:3],7,,C,,3,5,4,,8,1,7,2,6,
4hb[16:6],,5x,5,,7x,7,,8hb[16:3],1x,,2x,,2x,{24}7,6,5,4/1b,,,1,2,3,4/8b,,,8,7,6,5/2b,,,2,3,4,
{12}5/1bv6[8:1]*v4[8:1],1x,1x,1bx,,,
{16}Cf/B1/B2/B3/B4/B5/B6/B7/B8,
,,,1x/2x,1x/2x,,3x/8x,,6,4,5,
{8}3-7[12:1],3,4-8[12:1],4,5-1[12:1],5,6-2[12:1],6,
4q8[8:1],3,4/1<6[8:1],2,4q8[8:1]/1q5[8:1],2x,1b/4b,,
{16}3,,6h[16:1],5,,7,1,,{24}3x,4x,5x,8x,7x,6x,{32}2,3,4,5,6,7,8,1,
{16}6b/2b-6[16:12],,,,,,,,8hx[8:1],,,1,,,8,,7b-3[16:12],,,,,,,,4x,4,,2h[16:2],,,2,,
1b,7,5,6,8,7,4h[8:1],,5b,3,1,2,4,3,8h[8:1],,
{32}2b,3,4,,7x,,7,,3b,4,5,,8x,,8,,4b,5,6,7,8,1,2,3,{24}4/8bw4[8:1],,8x,,8x,,
{16}8bxpp6[16:13],,,,,,,,4x,,2bx-6[8:1]b,,,,{256},Cf,
