&title=羊羊小心愿
&artist=李紫昕
&first=0
&des=谱面发表羊
&lv_5=13+
&inote_5=(148){4},,,,,,
{8}6h[8:4],2,3,4,5-1[8:1],,,,
3h[8:4],7,6,5,4-1[8:1]*-1[8:1],,,,
7,6,5,4,3h[8:2],,5h[8:2],,
2,3,4,5,6-2[12:1],,,,
{16}4b/7b,,5,6,4,,5h[8:2]/2,,,,4,,8,,3,,
4/7,,5,6,4,,7h[8:3]/2,,,,4,,5,,,,
4/7,,5,6,4,,5h[8:2]/2,,,,3,,7,,4,,
{8}5/6,4/8,,4/3,5b<8[8:4]/1b>4[8:4],,,,,,,,
{8}7h[8:2]/5,,4,3,2-4[12:1]/4,,6h,,
7h[8:2]/5,,4,3,2-4[12:1]*-5[12:1]/5,1h,2h,,
6,5,7,4,8-5[12:1],,3,,
2-6[12:1]/7,,2-4[12:1]/5,,2/7,8h,8h,8h,
3h[8:2]/1,,8,7,6/8-3[12:1],5h,5h,,
4h[8:2]/1,,7,6,5/8<5[12:1]*p4[12:1],7h,8h,,
6,4,7,2,8h[8:2],,4h[8:2],,
3V14[8:2]*pp4[8:2],,,,,,,,
{16}4b/7b,,5,6,4,,5h[8:3],,2-4[12:1],,,,,,,,
4/7,,5,6,4,,5-7[12:1],,2-4[12:1],,,,,,,,
4/7,,5,6,4,,5h[8:3],,2-4[12:1],,,,,,,,
{8}5/7,,2>4[12:1]/4-7[12:1],,2/4,,8h[8:1]/3,2,
{16}1b/8b,,7,6,5,,2h[8:3],,4-7[12:1],,,,4,,,,
8/1,,2,3,4,,7h[8:3],,5-2[12:1],,,,5,,,,
1/8,,7/2,6/3,5/4,,2/7,,4-7[12:1]/5-2[12:1],,,,4/5,,,,
1h[8:2]/8,,6,5,4,,2,,3b/7b,,,,{8}1>4[12:1]/5<8[12:1],1/5,
{8}5bp1[12:1]/1bp5[12:1],,1b>4[12:1]/5b<8[12:1],,5b/1b,,4-2[12:1]/8-6[12:1],4/8,
4b-1[12:1]/8b-5[12:1],,4b-8[12:1]/8b-4[12:1],,4b/8b,,5/1,6/2,
3bq1[8:1]/7bp1[8:1],,3bp5[8:1]/7bq5[8:1],,3b/7b,,1/8,2/7,
3b-5[12:1]/6b-4[12:1],,3bqq5[8:2]/6bpp4[8:2],,3b/6b,,,,
1/5,,2/6,3/7,4-1[8:1]/8v5[8:1],,4V68[8:1]/8,,
2,,3/1,4/8,5v2[8:1]/7<4[8:1],,5p8[8:1]/7,,
3,,4/7,3/6,2q6[8:1]/5q1[8:1],,2/5,,
{8}8h[8:4]/5,5,5,5,{32}4,3,2,1,8,7,6,5,{8}4>1[12:1]/8<5[12:1],,
{8}8bq4[12:1]/4bq8[12:1],,4b>1[12:1]/8b<5[12:1],,8b/4b,,1-3[12:1]/5-7[12:1],1/5,
1b-4[12:1]/5b-8[12:1],,1b-5[12:1]/5b-1[12:1],,1b/5b,,8/4,7/3,
2bp4[8:1]/6bq4[8:1],,2bq8[8:1]/6bp8[8:1],,2b/6b,,4/5,3/6,
2b-8[12:1]/7b-1[12:1],,2bpp8[8:2]/7bqq1[8:2],,2b/7b,,,,
4/8,,3/7,2/6,1>4[8:1]/5-8[8:1],,1/5p1[8:1],,
7,,8/6,1/5,2v5[8:1]/4<7[8:1],,4>1[8:1]/2,,
6,,2/5,3/6,4V28[8:1]/7v4[8:1],,4/7,,
1/5h[8:4],1,1,1,{24}2,3,4,5,6,7,2,3,4,5,6,7,
{8}8b-4[8:1]/4b,4,2v1[8:1],2,7v4[8:1]*p3[8:1],,,,
5b/6b-1[8:1],6,2v5[8:1],2,8>3[8:1]*qq6[8:1],,,,
4-1[8:1]/2,3,4-8[8:1]/8>3[8:1],6,8V64[8:1]/4,,2,,
1>4[8:1]/4<7[8:1],,1v6[8:1]/4,,1/3,,5/1>4[8:1],1,
{32}1bv6[8:1]/6b,7,8,,,,,,{8}1,4,7,3,5-8[8:1]/1,,
{32}1b/5bv2[8:1],2,3,4,,,,,{8}5,7,1,6,3-8[8:1]/5,,
{8}6-4[12:1],7,6/2-8[12:1],3,2/7-5[12:1],,7v4[8:1]/1v4[8:1],,
7/1,,3/6,2,1h[8:3]/8,7,6,5,
8b>3[8:1]/4bv7[8:1],,,,4bqq2[8:1]/8bqq6[8:1],,,,
{8}3b/7b-4[8:1],,4/7,3,2-5[8:1]/5-8[8:1],1,2,,
3b/7b-4[8:1],,4/7,3,2/5-8[8:1],1,2-7[8:1],3,
2b/6h[8:2],,,,{32}6b/8b,5pp1[8:6]/1,4/2pp4[8:3]*pp4[8:3],3,,,,,
{8},,,,,,,,E
