&title=Nerverakes
&artist=Taishi
&first=0.2
&des=0d00
&lv_6=14
&des_6=0d00
&inote_6=
(140){4},,,,,,{2}2h[2:1],
3h[2:1],4h[2:1],
{1}5h[1:1],
1bs5[2:1],
{8}6,{16}3,4,{8}3,5,{16}2,2,3,4,{8}4,{16}7,7,
{8}4,3,{16}3,3,{8}5,1-4[8:1],7,{4}1,
{8}6,{16}2,2,{8}4,3,{16}8,8,7,6,{8}6,{16}4,5,
{8}4,7,{16}3,4,{8}3,8-5[8:1],2,{4}8,
{8}2,{16}4,3,{8}4,2,{16}6,5,6,4,{8}5,{16}3,3,
{8}4,6,{16}2,1,{8}2,7<4[8:1],1,{4}7,
{8}2,{16}6,6,{8}4,6,{16}3,5,4,6,{8}2,{16}6,4,
{32}7,6,5,4,3,2,1,8,7,6,5,4,3,2,1,8,7/2x,3,4,5,6,7,8,1,2,3,4,5,6,7,8,1,
{16}2/6bx<8[8:1],,,4,{8}6,3-6[8:1],,3,{4}7,
{16}8-4[8:1],,,2,{8}8,1>5[8:1],,1,7,7,
{16}3-8[8:1],,,5,{8}3,6-2[8:1],,6,{4}3,
{16}6,4,{8}6,3,{16}7,1,7b>2[8:1],7,7,7,4b/7,4,4,4,
4/8-5[8:1],,,2,{8}8,8-4[8:1],,8,{4}7,
{16}2-5[8:1],,,1,{8}2,1-5[8:1],,1,3,2,
{16}6<1[8:1],,,3,{8}6,3-8[8:1],,3,{4}5,
{16}4,5,{8}4,6,{16}2,2,7b,6,5,4,6b,5,4,3,
{4}8<5[4:1],5>2[4:1],2<7[4:1],7<4[4:1],
4>1[4:1],1<6[4:1],6>3[4:1],3>8[4:1],
8-5[4:1],5-2[4:1],2-7[4:1],7-4[4:1],
4-1[4:1],1-6[4:1],6-3[4:1],1b,
{8}2x-5[8:1],2,7-4[8:1],7,1-5[8:1],1,8,8,
1-3[8:1],8-6[8:1],1-5[8:1],8-4[8:1],1x-6[8:1],8x-3[8:1],1x,8x,
{16}4,5,4,5,3,6,3,6,2,7,2,7,1,8,1,8,
1,8,2,7,1,8,2,7,{32}2,3,4,5,6,7,8,1,2/7,6,5,4,3,2,1,8,
{2}7/1bx-5[8:5],{4}1b-5[8:1],1b/Cf,
{16}5,4,5,4,6,4,5,3,6,3,7,2,7,2,7,2,
5,4,7,2,5,4,7,2,6,4,6,4,{24}8,1,8,1,{48},{16}6,
5,7,8,5,4,8,1,4,3,1,2,5,4,8,1,7,
7,5,5,3,3,1,1,8,{4}8,1b/8b,
{24}8,7,6,1,2,3,5,6,7,4,3,2,8,7,6,4,3,2,8,7,6,4,3,2,
8,1,7,2,8,1,7,2,8,1,8,1,8x,7,6,5x/7x,6,5,4x/6x,5,4,2x,3,4,
8x,7,6,5x/8x,7,6,5x/1x,2,3,4x/1x,2,3,4,5,4,5,3,6,3,6,2,7,2,7,
{8}1,8,1,8,{4}1b/8bw4b[8:1],8b/Cf,
6h[4:1],{8}5,{16}6,6,{8}3>8[8:1],2,{32}3/7,6,5,4,7,6,5,4,
{8}7-4[8:1],1-5[8:1],7qq2[2:1],{16}1,7,{8}7,2,3,4,
4v7[8:1],7V15[8:1]*-2[8:1],{4}4,{8},B5/B2,B6/B3,{16}6,6,
{8}4,5,{16}3,6,4,5,4,6,3,7,{4}Ch[8:1],
{8},5b/4b,{16},,1-5[8:1],1,{8}5-1[8:1],1>1[4:1],{4}7h[8:1],
{8}C,5,5,{16}3,3,6,5,{8}7,{16}3,5,4,6,
2,7,2,7,{8}7/2,{16}1,1,1,8,1,8,{8}8/1,{16}7,7,
{24}1b,2,3,4/5,6,7,2b,3,4,5/3,4,5,{32}6/1b,2,3,4,5,6,7,8,1b,2,3,4,5b,6,7,8,
{1}1/5bh[1:1],
E
