&title=Resound
&artist=Nhato
&first=0.03
&des=? affected by "Radiance"
&lv_5=13+
&inote_5=(280){4},,,,(140)
{4}4h[4:1],7h[4:1],{16}3,6,4,5,{4}Cf,
{16}8bh[8:1],,1,7,,,7,,7h[8:1]/4,,5,6,,6h[8:1],,4,7h[8:1],,5,6,,6h[8:1],,4,{8}8-4[8:1],4-6[8:1],8,2,
{16}1bh[8:1],,8,2,,,2,,2h[8:1]/5,,4,3,,3h[8:1],,5,{8}2h[8:1],4,6h[8:1],4,{4}5bw1[8:1],5b,
{16}6bh[8:1],,5,7,,,7,,2,8,2,,1,,1,,7h[8:1],,5,6,,6h[8:1],,4,{8}5-1[8:1],1-7[8:1],5,3,
{16}3bh[8:1],,4,2,,,2,,{16}1h[8:1],,4,2,,5,3,,7,,7,5,6,,6,3,,3,4h[8:1],,1,,{24}1,2,3,
{16}7bh[8:1],,5,8h[16:3],,,4,,5,7,5,7,4,6,3,5,2,4,2,4,3,5,{24}B2,C,B6,
{8}8h[16:1],7h[16:1]/4h[16:1],6h[16:1]/3h[16:1],5h[16:1]/2h[16:1],
{16}1h[8:1]/4,,4,2h[16:3],,,6,,3,5,3,5,1,,1,7h[8:1],,8,6,,
{8}7<8[4:1]/5,4,{4}7b/3b,4,
{16}3bh[8:1],,4,2h[16:3],,,{8}4,5/2,6,7/4,{16}6,5,,5,{8}7,8-4[8:1]/3,2,8/1-5[8:1],2,8/1,7,
{16}6bh[8:1],,4,7h[16:3],,,,,{4}6>3[8:1],8-4[8:1],7>2[8:1],5,{8}7h[8:1],1h[8:1],8h[8:1],2h[8:1],
{4}4>5[4:5],4,4,4,{8}3,3,2,2,{4}1h[4:1],{8}3,4,
{4}2/5-8[4:2],2,2,2,{8}2h[8:1],5,6h[8:1],4,3h[4:1],,2,1,
{4}8-4[2:1],6,6,6,{8}7h[4:1],5,4,3,2h[4:1]/8,,4,5,
{4}4/6p4[2:1],2,2,2,
{16}1h[16:3]/7,,,8h[16:3],,,,,4/7,,,5,,,6,,
{1}Ch[1:1],
{16}7h[16:3],,,5h[16:3],,,6h[8:1],,3h[16:3],,,5h[16:3],,,4h[8:1],,
{16}8,E8,B7,B6,{4},,{16}1,E2,B2,B3,7,E7,B6,B5,{4},,{16}2,E3,B3,B4,7,E8,B8,B1,{4},,{16}2,E2,B1,B8,6,E6,B5,B4,{4},{16}7,E8,B8,B1,3,E4,B4,B5,
{16}8,E8,B7,B6,{4}2,2,{16}2,E3,B3,B4,7,E8,B8,B1,{4}3,3,{16}3,E4,B4,B5,{16}8h[16:3],,,7h[16:3],,,6,,{16}2h[16:3],,,3h[16:3],,,4,,{16}6h[16:3],,,5h[16:3],,,4,,{8}E2,E4,E6,E8,
{4}3h[8:1],3h[8:1],7-1[8:1]/4h[8:1],4h[8:1],
6-1[8:1]/5h[8:1],5h[8:1],6h[8:1]/4-1[8:1],6h[8:1],
4h[16:3]/7h[8:1],5h[8:1]/7h[8:1],8h[8:1]/3h[16:3],8h[8:1]/4h[8:1],1h[8:1]/2h[16:3],1h[8:1]/3h[8:1],4h[16:3]/2h[8:1],2h[8:1]/5h[8:1],
{8}1/3,1/3,2/8,2/8,1/7,1/7,6/8,6/8,{16}1,5,1,5,3,7,3,7,2-6[8:1],8,2,8,{4}2,
{32}8,7,6,5,4,3,2,1,8,7,6,5,4,3,2,1,{4}8z4[8:1]*-5[8:1],8,{16}2h[16:3],,,6h[16:3],,,4,,{16}4,6,3,5,{4}1b-4b[8:1],
{16}1/7,,6,5,,8,2,,3h[8:1]/5,,4,4h[8:1],,5h[8:1],,6,
8,,3,4,,1,7,,2-5[8:1]/8,,3,,{4}2/6<3[16:3],
6b,{8}5h[16:1],5h[16:1],{16}8-4-7[4:1],4,7,2,{8}8,3,{4}1-3[8:1],1<3[4:1]/5,4/1,{16}2,1,8,7,
{4}3x-5[8:1],{8}3-1[8:1],6,3,4,{16}3,5,4,7,,7,5,,{8}7-4[8:1]/3,2,7/1,8,{16}7,1,8,3,
{4}1b-4[8:1]*-6[8:1],1,2b-5[8:1]/7b-1[8:1],2/7,{16}3,4,2,4h[8:1],,5h[8:1],,{8}8<5[8:1],{16}1,
{24}1x,2x,3x,{8}4xh[8:1],1,
{16}8b/2b,,3,4,,1,7,,6h[8:1]/4,,5,5h[8:1],,4h[8:1],,3,
1,,6,5,,8,2,,7-4[8:1]/3-5[8:1],,2,,{4}7/3>6[16:3],
{4}1b,{8}4h[16:1],4h[16:1],2bh[8:1],3x,{4}1>4b[8:1]/7,
{8}1/7-3b[8:1],8,1q5b[8:1]/7,8,{4}1/7,{16}8,4,7,2,
{4}6x-4[8:1],{8}6-8[8:1],3,6,5,{16}6,4,5,2,,2,4,,{8}2-5[8:1]/6,7,2/8,1,{16}2,8,1,6,
{4}8x-4[8:1],{8}8,7,{8}3/5,2,{16}7-1[8:1],5,6,,{8}7-4[8:1],3,7,1,{16}3,4,5,6,7,8,1,2,
{8}5h[8:1],E5,3,3,{16}2,4,3,4,{4}2h[8:1],{8}6h[8:1],E6,4,4,{16}3,4,2,4,{4}3b,
{16}7h[8:1],,5,6,3h[8:1],,5,4,7h[8:1],,5,6,2h[8:1],,5,4,8h[8:1],,5,6,1h[8:1],,2h[8:1],,3,4,3,4,{4}2b,
{8}4h[8:1],E5,6,6,{16}7,5,6,5,{4}7h[8:1],{8}3h[8:1],E4,5,5,{16}6,5,7,5,{8}6h[8:1],,
{16}4,6,4,6,5,7,5,7,2,8,2,8,1,7,1,7,
{16}8,8,8h[8:1],,1,1,1h[8:1],,2,4,3,4,{4}2b-7[8:1],
{16}2/5,,6,6h[16:3],,,3,,24,,3,7h[8:1],,1h[8:1],,4,2/4,,3,7h[8:1],,1h[8:1],,4,{8}2/4-8-3[4:1],6,7-5[8:1]/4,,
{16}7b,,2,2h[16:3],,,6,,75,,6,2h[8:1],,8h[8:1],,5,{8}7/5,4,2>7[4:1]/8,1,{4}2b/7b<2b[4:1],2,
{16}7b,,1,1h[16:3],,,8,,2,4,3,,45,,56,,1/7,,2>5[8:1],1,,1,2,,{8}6<1[8:1],1-5[8:1],6,2,
{16}2b,,4,4h[16:3],,,6,,7/5,,6,5,,5,4,,1/5,,2,4,3,,3,6,,5,5h[8:1],,8h[4:1],,{24}1,2,3,
{16}4b,,75,5/7h[16:3],,,5,,3,4,2,2,6,5,7,7,3,4,2,8,1,7,{24}4,5,4,{8}6h[16:1],7h[16:1]/8h[16:1],1h[16:1]/2h[16:1],3h[16:1]/4h[16:1],
{4}5-1[8:1]/6-2[8:1],5/6,3-8[8:1]/8-4[8:1],{16}3/8,,,6xh[8:1],,5,6,,{8}7/1,3,{32}2-6[8:1]/8,3,4,5,6,7,8,1,{4}2,
{16}4b/7b,,3,3h[16:3],,,{8}5,4/7,3,2/5,{16}3,4,,4,{8}2,1-5[8:1]/6,7,1/8-4[8:1],7,1/8,2,
{16}3b,,5,5h[16:3],{8},,{4}2<7[8:1],4-8[8:1],3<6[8:1],1,{16}7x,7x,1x,1x,8x,8x,2x,2x,6qq3[4:5],
