&title=ハルノ寂寞
&artist=弦巻マキ / 稻叶昙
&first=0.07999999
&lv_5=13+
&des_5=ANorth
&inote_5=
(150){4},{8},{16}E6,E5,{2}E4,
{1}6/4h[2:1],
3/5h[2:1],
7/3h[2:1],
2/6h[2:1],
4/5h[2:1],
{16}7/2h[2:1],{4},,,{16},{8},2h[8:11],
5,{4}5,{8}6,6,,7,
{4}7,{8}6,6,{16}E2,E1,{8}5/E8,{4}5,
3/5h[2:1],{8}B3,C,{2},{4}6/4h[2:1],
{8}B6,C,{2},{4}2/6h[2:1],
{8}B2,C,{2},{4}7/3h[2:1],
{8}B7,C,{2},{4}5/4h[2:1],
{8}E5,C,{2},{4}2/7h[2:1],
{8}B3,C,{2},{8}Ch[4:1],
7V51[4:1],{4}7,{8}8-4-2[4:1],8,,1-5[8:1],
{4}1,{8}7-4-1[4:1],7,{2},{4}5/3h[8:1],
{8}3b,3/4h[8:3],,8,{4}8,
7/1h[8:1],{8}1b,1/5h[8:3],,2,{4}2,
7/3h[8:1],{8}3b,3/8h[8:3],,4,{4}4,
2/6h[8:1],{8}6b,6/1h[8:3],,5,{4}5,
3/6h[8:1],{8}3b,7/3h[8:3],,5,{4}5,
6/4h[8:1],{8}6b,3/6h[8:3],,2,{4}2,
8/1h[8:1],{8}8,3/7h[8:3],,4,{4}4,
Cf,{8}2z6[4:1],8,2,7,{4}7h[4:1],
{8}1z5[4:1],1,1x,6,{4}6h[8:1],{8}8z4[4:1],2,
8,2,3h[4:1],E6,{4}C,{8}2q6[8:1],1,
7p3[8:1],8,1v6[8:1],2,8v3[8:1],7,1-5b[8:1],1,
1/4v7[8:1],4,4/8v3[8:1]*v3[8:1],8,{4}8b,5,
{8}6h[#0.3999977],C,B3,7-3b[8:1],1w5[8:1],1,{4}1,
{8}7h[4:1],E1,C,E5,,2h[4:1],E1,C,
E5,8b,,1,,1h[4:1],7-3[8:1],7,
{4}2b,{8}1/8,7,7/2-4[8:1],1,8<4[4:1],8,
4>8[4:1],4,{4}8<4[4:1],4>8[4:1],{8}3,3x,
{4}3xh[4:1],{8}8,7,{4}6,{8}4,3,
{4}2,{8}7/2,2/7,,1b,1b,1b,
{4},{8}5-7[8:1],4-2[8:1],5-1[8:1],4-8[8:1],5-7[8:1],4-2[8:1],
5w1[8:1],4,{4}5,2bx,{8}1b,1b,
7h[4:1],E1,C,E5,,2h[4:1],E1,C,
E5,2,,7/8,6,5/4,3,2/1-5b[8:1],
8/1h[8:3],{4},{8}6,7,8/1b,2,3,
{16}4b/5b,3x,6x,3,6,2x,7x,2,7,2,7,8b/1b,{4},{8}1/5,
7,4/8,3,1/5,7,8/4,3,
5/1-6[8:1],7,5/1-4[8:1],3,{4}1/5,{8}6,6h[4:1],
,4-2[8:1],4-6[8:1],4-8[8:1],4,4,{4},{8}7/8,
{24}8/7,1bx,2x,3x,4x,{12}5xw1[12:1],{6},{12}5x,,{8}1x>7[4:1],1x,
{4}1h[4:1],{8}8x<2[4:1],8,8h[8:3],{4},{8}1bx,
1b,{4},{8}1>4[8:1],4<6[8:1],6<2[4:1],6,2z6[4:1],
2,5b,{4}Cf,{8},8/4,3/7,6/2,
{16}1,5,1,5,1,5,1,5,{4}7/3b,{8}6/1-6[8:1],8,
4/1-4[8:1],2,5/1-5[8:1],8,3/1-3[8:1],2,7/1-7[8:1],8,
{4}1b,{8}2>7[4:1],1h[4:1],{4}2,{8}1b,1b,
,3-6[8:1],7-2[8:1],3-8[8:1],7<1[4:1],3,{4}7,
{8}4xw8[8:1],4x,{4}4b,{8},8b/1b,1s5[8:1]/8bz4b[8:1],7/2b,
8b/1,{4},{8}3>5[24:5],2,6,6h[4:1],{24}4,3,2,
{8}1b,B1,C,7x,8/1,2,3/4,5,
6/2,1,7/8,6/1,5/2,3/4,6/2<7[8:1],3/7>2[8:1],
2>6[2:1],6,{4}B6f,{2},{8}5/3h[8:1],
5,3,4/6h[8:1],4,6,2h[8:1],5,
{4}3/5h[8:1],{8}4,4/7h[8:1],5,5,3/5h[8:1],3,
2/7-4[8:1],2,2/7,2,1/8-4[8:1],1,1/8,1,
1,6/1q5[8:1],6,1/6,,6b/3b,2b/5b,7b/4b,
{1}5b/2h[2:1],
{2}4h[4:3]/5h[4:1],8h[4:1],
{8}7/1,7,7/2,7,7/3,6,6/4,5/4,
{16}3,4,3,6,5,6,5,7,5,6,4,5,{4}1b,
{1}2qq8qq6[4:15]/6qq4qq2[4:15],
,,,{8},{16}2-7[8:11]*-7[8:11],
6-3[16:13],{4}2,{8},,,,,,,,,,,1,
8/1,7,7/1,6,6/2,2,3/5,4,
8/7,6/5,4/3,2/1,1-5[8:1]/8-4[8:1],2/7,{4}8/1,
{8}3,3,{4}3/6h[4:1],,{8}6,6,
{2}6/3h[4:1],{8}8,1,{4}8,
{8}8/1-5[8:1],2,1/8-4[8:1],7,8/2-6[8:1],3,2/6-2[8:1],7,
{4}2,{8}3,5,4,5,{4}B4/B3,
{8}7/1-5[8:1],7,7/1,7,7/2-5[8:1],8,8/2,8,
8/3-6[8:1],8,8/3,7,7/5,7/4,7/3,7/2,
7/1,8/B1/B2,8/B2/B3,8/B3/B4,8/B4/B5,8/B5/B6,8/B6/B7,8/B7/B8,
8/B8f/B1f,{4},{8}1xw5b[4.2##0.2],2xh[4:9],8h[8:17],,,,,,,,,,,,,,,,,,8/2,
{4}1bx,{8}5v8[8:1]/4-7[8:1],6/3,{4}5/4,{8}1,1/5-8[8:1],
{24}2,3,4,5x,{12},{8}1-5>2[4:1],2,1,6,{4}6h[4:1],
,{8}1>4[8:1]/5<8[8:1],6/2,{4}1-6-8[4:1]/5-2-4[4:1],5b/1b,
{8},1/5,8/4,{32}7b/3b,2x/6x,1x/5x,4x<8[32:5]/8x>4[32:5],,,,1x/5x,,,,8x/4x,{2},{8}2-5[8:1],
1-6[8:1],2,1,,{16}3-8[8:1]*-7[8:1],6,
{8}6,3,,8x-4[8:1],8,7-3[8:1],7,6-2[8:1],
6,5-1[8:1],{4}5,{8}8,7,6,5,
{16}1-4[8:1],6,{8}6,1,7,{2}7h[4:1],
{8}4/8-3[8:1],2,4/8-5[8:1],6,4/8-4[8:1],3,4/8w4[8:1],5,
{4}8b,{8}2,7,{4}8h[8:3],{8}3b,3b,
,4<8[8:1],5,3h[2:1],,2,2,{32}2b,1x,8x,7x,
6x,5x,4x,3x,{8}2xw6[8:1],,2b,,7>3v5[8:3],2,7h[8:3],
,,,2-5[8:1],3,8-5[8:1],1,8/2-6[8:1],
1,2,,7x,8/1,2,3/4,5,
6/2,1,7/8,6/1,5/2,3/4,6/2<7[8:1],3/7>2[8:1],
2>6[2:1],6,{4}Cf,{2},{8}4h[4:1]/5h[8:1],
{4},{8}6h[4:1]/5h[8:1],{4},5h[8:1]/3h[4:1],
{8},4h[8:1]/6h[4:1],{4},{8}6/3,{16}1,8,{8}1,7h[8:1],
,3h[4:1]/4h[8:1],{4},{2}5h[4:1]/6h[8:1],
{8}1bh[8:3],7<4[8:1],{4}7,{8}1bx,{4},{8}5h[4:1]/4h[8:1],
{4},3h[4:1]/4h[8:1],{8},4h[8:1]/6h[4:1],{4},{8}5h[8:1]/3h[4:1],
{4},{8}3/6,{16}8,1,{8}8,{4}2h[8:1],
{8}6h[4:1]/5h[8:1],{4},{8}4h[4:1]/3h[8:1],{4},6/3h,
{8}1h[4:1]/5h[8:1],{4},{8}8h[4:1]/4h[8:1],{4},2h[4:1]/6h[8:1],
{8},7h[4:1]/3h[8:1],{4},{16}7/3,2,6,2,{4}7h[8:1],
{8}3h[4:1]/7h[8:1],{4},{8}6h[4:1]/2h[8:1],{4},1h[4:1]/5h[8:1],
{8},8bh[8:3],4>1[8:1],4,,8bx,{4},{8}8h[4:1]/4h[8:1],
{4},{8}1h[4:1]/5h[8:1],{4},7h[4:1]/3h[8:1],
{8},2h[4:1]/6h[8:1],{4},{16}2/6,7,3,7,{4}2h[8:1],
{8}6h[4:1]/2h[8:1],{4},{8}3h[4:1]/7h[8:1],{4},8h[4:1]/4h[8:1],
,{8}3-7[8:1],7p6[2:5],{2}3p2[8:19]*p2[8:19],
E
