&title=Ops:Limone
&artist=Reku Mochizuki
&first=0
&des=Cloudreams「Waltz」
&lv_5=14
&inote_5=(210)
{1},,
{8}3,,3,,5,5h[8:3],
{24},,,2,3,4,
{8},,6,,7p4[4:3],,3,,,3,,,
{24}B2,E3,,
{8},,,4,,4,,6,6h[8:3],
{24},,,3,4,5,
{8},,7,,8pp5[1:1],,4h[4:1],,,4h[4:1],,,3,,3,,
{8}6,,6,,4,4h[8:3],
{24},,,7,6,5,
{8},,3,,2q5[4:3],,6,,,6,,,
{24}B7,E7,,
{8},,,5,4,3h[4:1]/5h[4:1],,,3h[4:1]/5h[4:1],,,2,,1qq4[1:1],,5,,5,,,,,,
{24}E7,B6,,
{8},,,3,,6/3h[4:1],,6,7/3h[4:1],,
{24}7,6,5,
{8}4x,,3,,2,,
{8}1h[4:1]/6h[4:1],,,1h[4:1]/4h[4:1],,,1/6,,1/4,,6,6,
{8}6h[4:1]/3,,3,6h[4:1]/2,,
{24}2,3,4,
{8}5x,,6,,7,,
{8}3h[4:1]/8h[4:1],,,5h[4:1]/8h[4:1],,,3/8,,5/8,,
{16}3/8,,1,2,1-6-3[2:1],,,,
{4}2,3-1-6[2:1],4,3,
{8}2,2,6/2-5-8[2:1],,7,,8-2-5[2:1],,7,,6,,7,
{24}5xh[1:0],6xh[1:0],4xh[1:0],5xh[1:0],
{8},,,4/2h[8:3],,,4h[4:1],,6h[4:1],,8h[4:1],,
{12}1,2,3,7,6,5,2,3,4,5hx[1:0]/C,,,,,,
{8}8h[24:7],1,2>5[8:3],,,5qq2[8:5],,
{24}8,7,6h[24:1],
{8},,7,,8,,{24}8,7,,,,,,,,7,6,,,,,,,,6,5h[24:5],,
{8},,,2h[24:7],1,8-6-4[8:3],,,4pp8[8:5],,
{24}1,2,3h[24:1],
{8},,3,,2,,{24}2,3,,,,,,,,3,4,,,,,,,,
{24}6x/B1/B8/E1,,,,,,3x/B1/B8/E1,,,,,,
{8}4h[24:7],5,6<1[8:3],,,1qq6[8:5],,
{24}2,3,4h[24:1],
{8},,3,,2,,{24}1,2,,,,,,,,2,3,,,,,,,,3,4h[24:5],,
{8},,,6h[24:7],5,4-2-8[8:3],,,8pp4[8:5],,
{24}7,6,5h[24:1],
{8},,6,,7,,
{8}1b>4[8:1]/8,,5,6b<1[8:1],,3,2b-5[8:1]*-6[8:1],,2b,,
{8}3,,5/3h[4:1],,6,5/7h[4:1],,
{24}8,1,2,
{8}3-8[8:1],,3-5[8:1]/7,,3/7,,6h[8:3],,7,5h[8:3],
{48}1h,,,,,,
{8},6h[2:1],,7,
{8},4,,4/2h[4:1],,5,6h[4:1]/4,
{24},,,7,8,1,
{8}2<7[8:1],,2>5[8:1]/6,,2/6,,6V82[8:3],,3,2<5[8:3],,4,5-8[6:1],,1,,
{8}4,4,4/6h[4:1],,3,4/2h[4:1],,
{24}1,8,7,
{8}6-1[8:1],,6-4[8:1]/2,,2/6,,3h[8:3],,2,4h[8:3],
{48}8h,,,,,,
{8},3h[2:1],,2,
{8},5,5,5/3h[4:1],,7,5/7h[4:1],,3,3h[4:1]/5,,1h[4:1],,5h[4:1],,7,7,1,1,
{24}8x-4[8:1],2x,8x,2x,,,
{8}1bx-5[8:1],,2bx-6[8:1],,3bx>5[8:3],,
{8}3/7,,,8,7-3[8:1],,4/7,,1-5[8:1],8,1/6>2[4:1],,
{8}6/2<6[4:1],,,4h[8:3],,,8z4[4:1],,4/8,,
{8}2-7[8:1],2,2/6-1[8:1],,2/6,3-6[8:1],,3/8,7-4[8:1],,3/7,,
{16}3,,3,4,
{24}3h[1:1],,,,,,E1,B8,,,,,D2,E2,,,,,E3,B3,,,,,C,,,,,,
{8}7>5[8:3],,
{8}3/7,,,1,2-6[8:1],,2/5,,8-4[8:1],1,3<7[4:1]/8,,
{8}3/7>3[4:1],,,5h[8:3],,,1s5[4:1],,1/5,,
{8}6,6,6x/E1/B1/B8,,,3x/E1/B1/B8,,,1x-4[8:1]/7x-3[8:1],,1x-5[8:1]/7x-4[8:1],,1x/7x,,
{12}3h,4h,2h,7h,5h,8h,3h,4h,1h,
{4}6b-3[8:1],2b-7[8:1],6b-1[8:1],4b<2[8:11],
{1},
{8}4,5,6pp4[8:11],,,,,,,,,,
{8}1,,2pp8[8:11],,,,,,8,,7,,6,,
{8}5s1[1:1],,,1,,,2,,,3,,,
{8}4,4h[8:3],5,6,7,,
{24}E1,B8,,{8}3,4,5,6h[4:1],,
{8}3,3h[8:3],4,5,6,,
{24}B8,B7,,{8}3,4,5,6h[4:1],,
{8}2,2h[8:3],3,4,5,,
{24}B7,E7,,{8}3,4,5,6h[4:1],,
{8}3,3h[8:3],4,5,6,,
{4}5/7,3/5,2/8,
{16}1x/7,,6,5,6,,1x/7,,8,,2,,1x/7,,6,5,6x,,1,,
{12}1h,7h,2h,
{16}8xh[1:0],,3,4,3,,2/8x,,1,,7,,2/8x,,3,4,3x,,2/8,,1,,7,,
{16}8x,,2,4,3,,2x/5,,3,,8,,4/7x,,5,6,4x,,8,,
{12}8h,2h,7h,
{16}1xh[1:0],,7,5,6,,4/7x,,8,,1,,2x/5,,4,3,5x,,2,,1,,8,,
{16}3/7x,,4,6,5,,1/7,,6,,5,,1,,3,5,4,,6/8,,
{12}6h,4h,8h,
{16}2xh[1:0],,5,3,4,,2/8,,3,,4,,8,,6,4,5,,1/3,,4,,6,,
{16}2b,,6,5,6,,2b,,6,5,6,,
{8}2b,3/5,7b,4/6,2b,1/7,
{24}1xh[1:0],8xh[1:0],1xh[1:0],8xh[1:0],1xh[1:0],8xh[1:0],1xh[1:0],8xh[1:0],1xh[1:0],8xh[1:0],1xh[1:0],8xh[1:0],1x-5[8:1]b,8xh[1:0],1xh[1:0],8xh[1:0],1xh[1:0],8xh[1:0],
{48}1xbh[1:0],Cf,,,,,
{8},,,2,2-5[8:1],5V38[4:1],2,8-4[8:1],7,,
{24}7x,6x,5xh[24:1],
{8},2,7,4-8[8:1],,4,7-5[8:1],1,7-1[8:1],1-5[8:1],7,3,2-4[8:1],
{8},2,,6,6-1[8:1],1V74[4:1],6,4-8[8:1],3,,
{24}1x,2x,3xh[24:1],
{8},1-5[8:1],3,1,,4-2[8:1],6,4-8[8:1],8-2[8:1],6,7v4[8:1],,
{4}7b/3b-8[8:1],3b/7b,
{8}7,7-4[8:1],4V61[4:1],4,1-5[8:1],2,,
{24}2x,3x,4xh[24:1],
{8},7,2,5-1[8:1],,5,2-4[8:1],8,2-8[8:1],8-4[8:1],2,6,7-5[8:1],
{8},7,,3,3-8[8:1],8V25[4:1],3,5-1[8:1],6,,
{24}8x,7x,6xh[24:1],
{8},8-4[8:1],6,8,,3/5,7b-4[8:1],,3/7,2b-6[8:1],,2/7,
{4}8b-4[8:1]b,8b/2b,
{12}3x,5,4,6x,5,6,3x,5,4,8,7,6,
{12}3x,4,3,6x,4,5,1,2,3,
{12}8x,6,7,5x,6,5,8x,2,1,3x,4,3,{16}5h,4h,6h,5h,
{12}7x,8,6,4x,5,3,7x,6,7,1,2,3,
{12}6x,4,5,2x,3,2,8,7,6,
{12}1x,3,2,6x,5,6,1x,7,8,4x,3,4,2x,7,1,8x,5,6,
{12}1x,3,1,6x,5,7,1,2,3,
{12}8x,6,8,3x,4,2,8,7,6,
{12}1x,4,3,8x,6,7,2x,4,3,8x,5,6,{16}4h,5h,3h,4h,
{12}2x,1,3,5x,4,6,8x,4,3,1,8,7,
{12}4x,5,3,1x,5,6,8,1,2,
{16}6h,5h,7h,4h,6h,5h,7h,4h,
{24}8x,7,6,1,2,3,
{4}4bx-1[8:1]/8bx-6[8:1],4b/8b-4[8:1]b,2b-5[8:1]*-7[8:1]/8b,2b-6[8:1]b,2b,
{8}7-5[8:1],8-4[8:1],7-3[8:1],8-2[8:1],7,8,7,
{16}7x,6x,5x,,
{8}7/8,1/2,
{24}2x,3x,4x,5x-1[8:1],
{8}7,5>2[8:1]*<8[8:1],,5w1[8:1],,5,,3b/7b,E
