&title=くうになる
&artist=feat. 初音ミク & 可不
&first=-0.95
&des=西也
&lv_1=13
&lv_5=13
&inote_5=(166)
{1},
{8}B2,B7,B6,B3,4hx[4:1],,,5x,5hx[4:1],,,3x,3xh[4:1],,,8x,8xh[4:1],,,2x,2xh[4:1],,,4x,4xh[4:1],,,6x,6h[4:1],,1x,8x,1bx,,,,
{8}1qq4[8:3],,5h[4:1],,,,5,6,75,,1,3,2,4,3,5,4qq3[4:1],,4/5h[4:1],,,,
{8}1,2,8,7,3,6,45,,Ch[4:1]f,,,,
{8}2^4[8:1]/7h[4:1],,2,,8,3,8h[6:1],,4,7,3,6,2^8[8:1],5,2,,5qq8[2:1],,6,8,8,7,7x,6x,5x^8[4:1],4x,5,,,,
{8}4qq3[4:1]/5pp6[4:1],,45,,,,2,1,2h[8:1],,1^6[8:1],2,3,4,5^2[8:1],6x,7,,
{8}7^5[8:1],7,2^4[8:1],2,8qq6[8:1],8,1pp3[8:1],1,5<5[2:1],,,,,,,,
{8}8-4[8:1],,3h[2:1],,5,6,7h[2:1],,1,2,3,4,5-1[8:1],6,7h[8:1],,8qq8[4:1],,8<1[8:6]/1,
{8},B3,,B5,,B7,,Chf[1:0],,
{16}8qq6[8:1],,,,8,,,,8pp2[8:1],,,,8,,,,
{8}3x/4x,2x,18,7,6^1[8:1]/5-1[8:1],4,,,
{8}4^1[8:1],3,4,,5^8[8:1],6,5,,
{8}1x/2x,3,45,6,8-4[8:1]/7^4[8:1],1,,,
{8}1v6[8:1],7,1,,8v3[8:1],2,8,,
{8}28,1,17,8,3^6[8:1]/6-3[8:1],2x/7x,,,
{8}Cfh[1:0],,1,8,1,7,1,6,1,5,1,4q8[8:1],1q5[8:1],4x,1x,,
{8}x1^4[8:1],5,1x^6[8:1],7,1x-5b[8:1],3,1x,,
{8}4x^1[8:1],8,4x^7[8:1],6,4x-8b[8:1],2,4x,,
{8}2-5[8:1],6,2,,7-4[8:1],3,7,,
{8}3-5[8:1],5x-2-7[8:3],3,8,7,6x,5x,,
{8}3-8[8:1],3,6-1[8:1],6,3-8[8:1],3,5-1[8:1],,
{8}5,,6,7-5[8:1],8-2[8:1],7,8,,
{8}6hx[8:1]/3x^5z1[2:3],,3,1x,8,7,6h[8:1],,5x,6x,7x,7x,8x,8x,8x-4b[8:1],,8b/2b,,
{8}5h[4:1]/3h[8:1],,3x,2,18,,6,1,7,
{16}2,1,2,,8,,8h[8:1]/4h[8:1],,,,7,,6,,5b,,3,4,3,,
{16}3x,,3x/4x,,3,,3x/1bx,,3,,36,,3x/6x,,37,,3x/7x,,3bh[4:1]/8bh[4:1],,,,,,,,
{8}1h[4:1]/7h[8:1],,7x,6,54,,1,5,2x,
{16}3bx,8,2,7,1x,6x,8bxh[8:1],,,,
{16}7x,,7,,6,,4,5,4,,
{16}4x,,4x/5x,,4,,4x/1bx,,4,,46,,4x/6x,,47,,4x/7x,,4bh[4:1]/8bh[4:1],,,,,,,,
{8}3qq4[4:1]/5h[8:2],,3,,,,
{8}5,6,74,,2,4,3,5,4,6,5^8[8:1],,5p1[4:1],,8x,7,6,5h[8:7],4,3,2,1,8-4[8:2],,
{4},,
{8}1p4[8:1]/8q5[8:1],,18,,3,4,25,,7,5,6,4,5,3,4^1[8:1],,4p8[4:1],,1x,2x,3x,4h[8:4],5,6,7,8,1bx,,
{8}5^3[8:1],,5,,5^7[8:1],,5,,1x/2x,3,45,6,7q3[8:1]/8^2[8:1],1x,,,
{8}6^8[8:1],2,6,,3^1[8:1],7,3,,
{8}53,4,57,6,2-5[8:1]/4pp5[8:1],3,,,
{8}1^4[8:1],,1h[8:1],,8^5[8:1],,8h[8:1],,
{8}2,6,3,7,4,8,5-1[8:1],,8h[8:1],,
{8}2,7,3,6,1,8,2,7^2v4[8:5],4hb[8:6],,
{4},,,
{8}1v3[8:1],8v6[8:1],1,8,1h[4:1],,
{8}8,7h[8:1],2,3h[8:1],6,5h[8:1],4b,,3-5[8:1]/6-4[8:1],,36,,2-5[8:1]/7-4[8:1],,27,,
{8}2-6[8:1],6,2V48[4:1],8,7,6,5hx[8:1],,
{8}Ch[8:1],,
{8}2^4[8:1],6^8[8:1],2,6,5-1[8:1],,
{8}5x-8[8:1],6,5x-2[8:1],3,5x-1b[8:1],6,5bx,,
{8}2h[8:1]/8h[8:1],,3^1[8:1],7^5[8:1],3-7[8:1],7,3,,
{8}6^1[8:1],2,36,4,5-1[8:1],1-3^5[16:4],5,,8h[4:1],,
{24}6xb,7x,8x,1x,2x,3x,
{8}4x-1[8:1]/8x-5[8:1],37,48,,
{8}5pp5b[4:1],4,5qq5b[4:1],3,2,1x,8h[8:1],,
{8}7xp2[8:1]/6x^3[8:1],,76,,2xq7[8:1]/3x^6[8:1],,23,,
{8}8^3[8:1],8,7,7,6-1[8:1],6,4,,
{8}2pp5[2:1],2x,2x,1x,8x,7x,6h[8:1],,
{16}8x^5[8:1],1x,2x,3x,4/8b,,,,
{8}4w8[8:1],4,,,
{8}1>5[4:1],1,5<1[4:1],5,1q5[4:1],1,5q1[4:1],5,1>5[4:1],1,6,7,1w5[8:1],,
{16}1b,,,,Chf[1:0],,,,2bx/8bx,,
{16}3,4,3,,5-1[8:1],,5,,3^8[8:1],,3,,7,,7,,1,8,2^7[8:1],,5h[4:1],,2b,,,,
{16}84,,1x/5x,,2b/6b,,3,7,4,,5h[8:3],,
{8}4b,3b,2b,1h[2:1],8,7,6pp5[4:1],5,6b,,
{8}2,3,3bh[4:1],
{16}8,7,6,,5,,5bh[4:1],,8,1,2,,3,,4,,
{16}8,7,2,3,6,5,41,,,,
{8}1h[8:1],5h[8:1],2h[8:1],6h[8:1],3h[8:1],7h[8:1],4^2[8:1],8^6[8:1],4wb8[8:5],8,,,,,,,,,
{32}1<1[8:3],2x,3x,4x,5x,6x,7x,8x,1x,,,,
{8},,,7-5[8:1],5-1-7-3[8:3],7,4,3,2,1h[1:1],,
{8}2^4[8:1],,2,,7^5[8:1],,7,,
{8}24,3,75,6,5v6[8:1]/4v3[8:1],,54,,
{8}1^4[8:1],5x,1^6[8:1],,1/5w1[8:1],,5,,
{8}4^1[8:1],8x,4^7[8:1],,4/8-2[8:1]*-6[8:1],,8,,
{16}3x,5x,3,5,
{8}2-4[8:1],4-8[8:1],2,5,6h[8:1],,
{8}35,2,46,7,1-5b[8:1]/8-4b[8:1],,1b^4[8:1]/8b^5[8:1],,1b/8b,,
{32}8bx>8b[8:3],7xb,6bx,5xb,4bx,3bx,2bx,1bx,8bx,,,,,,,,
{8},,4-8[8:1],3,4qq3[4:1]/5pp6[4:1],,4b/5b,,,,
{8}1-5[8:1]/5-1[8:1],26,,,7-3[8:1]/3-7[8:1],64,,,
{8}8w4[8:1]/4,8/4<2[8:3]*>6[8:3],,,,,,,
{8}6-8[4:1],6,8v1[4:1],,1-3[8:1],,4h[4:1],,
{16}2x,1-5[8:1],8,7,6,5q4[16:3]/1,,,,,,,,,,,
{8}18,18,
{16}1b,2,3,4,8b,7,6,5,B1,B2,B3,B4,B8,B7,B6,B5,
{8}1-5[8:1],7-3[8:1],1,7,1bw5[8:1],,1b>1b[8:12]*<1[8:12],,
{4},,,,,,,
{16}45,,45,,36,,2,7,2,,
{8}8-6[8:1],8,1-3[8:1],1,5pp1[2:1],5,4,4,3,2bh[4:1],
