&title=You're the Shine (Night Butterflies)
&artist=FELT
&first=0.57
&des=HEHE122
&lv_5=13
&inote_5=(128)
{8},,,,,,,,
4,,4,,4,,4,,5,,5,,5,,5,,4,,3,,2-8[8:1],,2,,5,,6,,7-1[8:1],,7,,
4>1[8:1],,4,,5<8[8:1],,5,,
1>4[8:1],,1,,8<5[8:1],,8,,
4>1[8:1]/5,,4/5<8[8:1],,4>1[8:1]/5,,4/6h[8:1],,3h[8:1],,4h[8:1],,5,6,7,8,
{16}
1-5[8:1]/2,,8,,1/2,2,,,7<4[8:1]/1h[4:1],,8,8,7,,2,,
1-4[8:1]/8,,2,,1/8,8,,,2>4[8:1],,4<6[8:1],,6<8[8:1],,8>2[8:1],,
2,,4,,6,,8,,2,,6,,3,,6,,
4,,5,,3,,6,,4,,5,,3,,6,,
8-4[8:1]/7,,1,,8/7,7,,,2>5[8:1]/8h[4:1],,1,1,2,,7,,
8-5[8:1]/1,,7,,8/1,1,,,7<5[8:1],,5>3[8:1],,3>1[8:1],,1<7[8:1],,
7,,5,,3,,1,,7,,2,,6h[8:1],,,,
5h[8:1],,,,4h[8:1],,,,3,,2,,1,,8,,
{16}
7/2>5[8:1],,3,,2/7,,1,,8,,2,,8/2>5[8:1],,
3,,82,,,,71,,,,7,,8,,7<4[8:1]/8,,6,,7/1,,,,27,,
2,,1,,3,,,,4,,,,5,,,,4,,,,3,,,,,,
2/7<4[8:1],,8,,7/2,,8,,1,,7,,1/7<4[8:1],,
6,,17,,,,28,,,,2,,1,,2>5[8:1]/1,,3,,2/8,,,,72,,
7,,8,,6,,1,,5,,2,,4,,3,,5,,4,,6,,5,,7,,
8-4[8:1]/3,,7,,8/3<6[8:1],,2h[4:1],,,,,,,,6<8[8:1],,,,2/6,3,4,,1<6[8:1]/5>2[8:1],,4/8,,1/5,,,,1h[8:5],,,,5h[8:3],,,,,,,,2/6,,3/7,,4/8,,,,Ch[8:3],,,,,,,,,,,,2,2,
1-5[8:1]/6,,2,,1/6>3[8:1],,7h[4:1],,6,,,,,3,2-8[8:1]/6,,,,2/6-4[8:1],,7,,2-7[8:1]/6,,1,,2/6-3[8:1],,,,6/3-8[8:1]*-1[8:1],,,,3-7[8:1],,,,3,,6,,,5,,,4,,,,Ch[8:3],,,,,,,,B2,E3,B3,,6,7,
8-5[8:1]/4,,,,8/5>2[8:1]*>2[8:1],,,,5-1[8:1]/6,,7,,5,,2h[8:1],,,,7h[8:1],,,,6,,1-5[8:1]/5,,2,,1/5,,6h[8:1],,,,7/3h[4:1],,7<5[8:1],,,,7/3,2,1,,4h[4:1]/8h[8:1],,,,8>3[8:1],,3q8[16:3],,,,,,,,B7,E7,B6,,,,
7-3[8:1]/1,,,,7/3-8[8:1],,,,3-6[8:1],,5,,,,7,,,,6,,,,3h[8:1],,7,,,4,,,8,,,,5-1[8:1],,6/4,,5,,,,8h[8:9],,,,,,4-6[8:1],,,,4-2[8:1],,,,4-6[8:1],,,,4,,,,
7h[4:1]/5b-3[8:1],,,,,,,,7,,6/4-7[8:1],,5/3,,4/2h[8:3],,,,,,,,,,2,,3-6[8:1],,6-2[4:1]*-1[4:1],,3,5,,,,,,3,8,,5h[8:6]/6,,,,4,,,,6,,,,4,,,,
1h[2:1]/2,,,,8,,,,2h[2:1],,,,7,,,,,,,,8v3[8:1]/2,,,,8/2-6[8:1],,1,,8-5[8:1]/2,,7,,2/8,,,1,8>3[8:1]/7,,3<6[8:1],,6<8[8:1],,,,8,,,,3,,,,1-6[8:1],,,,
6-3[8:1]/1,,,,3-8[8:1]/6,,,,8-5[8:1]/3,,,,5-2[8:1]*-1[8:1]/8,,,,
5b,,,,,,,,2,,3/5-2[8:1],,4/6,,5/7h[8:3],,,,,,,,,,4h[4:1],,7<5[8:1],,8,,3/7,2,1<7[8:1],,,,1/5,4,3,,2h[4:1]/6,,,,,,,,1/5,,,,1/5,,2/6,3/7,
4h[2:1]/8h[4:1],,,,,,,,7h[2:1],,,,2,,,,,,,,1v6[8:1]/7,,,,1/7-3[8:1],,8,,1-4[8:1]/7,,2,,7/1,,,8,1<6[8:1]/3,,6>3[8:1],,3>1[8:1],,,,1,,,,6,,,,8,,,,
1,,,,7,,,,3,,,,5,,,,3/8b-4[8:1],,,,8/3-6[8:1],,,,3,,,,5/6,,,,4/7-4[8:1],,,,7/3<6[8:1],,,,3/8-5[8:1],,,,8/2-6[8:1],,1,,2/8<5[8:1],,7,,8/2>4[8:1],,1,,
2/6,7,8,,4/8<6[8:1],,1/5,,4/8,3,2,,1/5,,,,7,,,,1,,,,1-5[8:1]/7,,,,1/7<4[8:1],,,,1-5[8:1]/7,,2,,6>3[8:1]/1,,7,,6/2-7[8:1],,,,2/5-1[8:1],,,,5/3-6[8:1],,4,,3/5w1[8:1],,7,,
5,,,,7,,3,,5,,,,1,,,,8,,,,2,,,,7,,,,3,,,,
8-4[8:1]/7,,1,,8/7,7,,,2>5[8:1]/8h[4:1],,1,1,2,,7,,
8-5[8:1]/1,,7,,8/1,1,,,7<5[8:1],,5>3[8:1],,3>1[8:1],,1<7[8:1],,
5,,4,3,2,1,6,,8,7,8,,2,1,2>4[8:1],,5,,6/2,7,8h[16:1],,2h[4:1],,8,7,6,,3,4,5<7[8:1],,
1,,5/2,3,4>2[8:1],,5/8,,4/7,6,5,,1/5,2/6,3/7,,2,,6,5,6,,
3h[8:1]/4,,,,6h[8:1]/5,,,,5h[8:1]/3,,2,,5>3[8:1],6,7,,7/5,,8,7,6,,4,3,2,,8,,1,2,,,8/7,,6,5,,,3,4,,
