&title=Crossing!
&artist=765 MILLION ALLSTARS
&first=1.29
&des=Hisui
&des_5=Hisui
&seek=0.00
&wholebpm=188
&demo_seek=65.0
&demo_len=20.3
&lv_1=音
&lv_5=13+
&inote_1=(188)
{4}
1,1,
1,1,1,1,1,1,1,1,
1,1,1,1,1,1,1,1,
1,1,1,1,1,1,1,1,
1,1,1,1,1,1,1,1,
1b,E,
&inote_5=(188)
{4}
3-1[8:1]*-8[8:1],,
{1}
7h[1:1],
5h[1:1],
{4}
6-3[2:1],,2<5[4:3],2,
,,8,7,
{1}
2h[1:1]/6,
4h[1:1],
{4}
3h[2:1],,6,
{512}
3v8[4:3],6v1[4:3]*v8[4:3],,,,,,,,,,,,,,,
,,,,,,,,,,,,,,,,
,,,,,,,,,,,,,,,,
,,,,,,,,,,,,,,,,
,,,,,,,,,,,,,,,,
,,,,,,,,,,,,,,,,
,,,,,,,,,,,,,,,,
,,,,,,,,,,,,,,,,
{1}
,
{8}
2h[1024:1],4,3h[1024:1],5,2h[1024:1],3,5h[1024:1],4,
2h[1024:1],4,3h[1024:1],5,4h[1024:1],3,5h[1024:1],6,
7h[1024:1],5,6h[1024:1],4,7h[1024:1],6,4h[1024:1],5,
7h[1024:1],5,6h[1024:1],4,3/6,2/7,1/8-4[8:1],,
{4}
2h[8:3]/8b,6h[8:3],4h[8:3],8V64[4:1],
3h[8:1],2h[8:1],1h[8:1]/5,6/8h[8:1],
7h[8:1],2/6h[8:1],3h[1024:1]/5h[8:1],4h[8:1]/7h[1024:1],
3h[8:1]/8h[1024:1],1v3[8:3]*v7[8:3]/2h[8:1],,,
{1}
4h[4:1]/6-4[4:1],
2-5[4:1]/5h[4:1],
{4}
3h[4:1]/7-3[4:1],,1h[4:1],4-1[4:1]*-7[4:1],
4,,3/8,4/7,
{8}
5h[4:1]/6h[4:1],,,,4/6,6,3,6,
2h[4:1]/6h[4:1],,,7-2[4:1],7,,3,3-6[4:1],
3,,,8,8h[4:1],,,
{512}
4v2[4:1],8v2[4:1]*v6[4:1],,,,,,,,,,,,,,,
,,,,,,,,,,,,,,,,
,,,,,,,,,,,,,,,,
,,,,,,,,,,,,,,,,
{8}
4/8,,,,1,4b/6b,,,
4h[4:3]/7-2[8:1],,7,,1,8,7,3/6,
2-7[8:1]/5h[4:3],,2,,8,1,2,3/6,
4/7-2[8:1],,3-6[8:1],,5-8[8:1],,1-4[8:1],1,
{4}
5-3[8:1]*-7[8:1],,2/7,3/6,
{8}
4-2[8:1]/6v1[8:1],,4/6,,5v2[8:1]/6-8[8:1],5/6,5/6,,
1v4[8:1]*v6[8:1]/3,,,,5h[4:1],,2,3/6,
4^1[8:1]/7,,,5^8[8:1],2/5,,3,4,
{16}
8v3[8:1]*v5[8:1],,,,,,,,4,,7,6,5,,,,
{8}
3,4,5-1[8:1],6,7h[4:1],,4-2[8:1],4,
6-8[8:1],6,5-1[8:1],,8w4[8:1],,8,,
{4}
,5b,2b^7[8:1]/6h[4:1],,
7b/8b-4[8:1],5b,1b-5[8:1]/2b,4b,
{8}
6,5,4-8[8:1],3,2h[4:1],,5-7[8:1],5,
3-1[8:1],3,4-8[8:1],,1w5[8:1]*w5[8:1],,1,,
{4}
,2b,4b-1[8:1]/7h[4:1],,
3b/6^1[8:1],5b,3b^8[8:1]/6b,4b-7[8:1],
{8}
,,1,2,3/8,7,2/6,3,
4/5,,3qq5[8:3]/6pp4[8:3],3/6,,,,,
3h[4:1]/8-4[8:1],,,1,1/7-4[8:1],,1b-5[8:1]/7b,,
1b/6h[4:1],,,8b,2bq5[8:3]/8bpp4[8:3],,,,
,,6,7,3/8,2,1/7,2/6,
3v5[8:1]/5,,7v1[8:1],7,,4,4<8[8:1],,
{4}
2,5>1[8:1],7,4V68[8:1],
{8}
2b,,5p4[8:3],4,3b,,,,
{32}
2b,3,4,,,,,,5,,,,7b,6,5,,,,,,4,,,,2b-8[8:1]/7b-1[8:1],,,,,,,,
{4}
2b-5[8:1]/7b-4[8:1],2b/7b,3b-1[8:1]*-8[8:1],3b,
{8}
7bV51[4:1],,4/7,3,2V48[4:1],,2/7,6,
5>1[4:1],,1<5[4:1],,5pp2[8:3],,1,2,
{4}
3h[4:1],1-4[8:1],8-5[8:1],6bqq3[8:3],
,,1-4[8:1]*-6[8:1],,
{8}
3V51[4:1],,3/8,7,6V84[4:1],,1/6,2,
{4}
3-7[8:1]*-8[8:1],3,6-1[8:1]*-2[8:1],6^3[4:1],
3^8[4:1],8^5[4:1],5pp1[2:1],2b,
{8}
,,,,4/7,6,2/5,3,
4v2[8:1]/5,,7,,5v2[8:1]/6,7,8,,
6-2[8:1]/7,,1,1-5[8:1]*v4[8:1],,,,8,
8b-5[8:1],,8,1bpp1[4:1],,1b<1[8:3],7b,7b,
,,,,8-4[8:1],2-6[8:1],8,2,
7h[4:1],,5,1/2h[4:1],,5,3V14[8:3]*pp4[8:3],4,
,,,,8h[4:1],,4,3/6,
{32}
2b/7b,3,4,,8,,,,8,,,,2b/7b,6,5,,1,,,,1,,,,2b/7b,3/6,4/5,,,,,,
{4}
4b-8[8:1]/5b-2[8:1],4b/5b,7b^2[8:1]*^4[8:1],7b,
{8}
3bV15[4:1],,3/8,7,6V48[4:1]*V48[4:1],,3/6,2,
1-4[8:1],,5-8[8:1]*-8[8:1],5,5-2[8:1],,1-6[8:1]*-6[8:1],1,
{4}
3-8[8:1],3/4-7[8:1]*-7[8:1],4/6>1[4:1],1b<5[4:1]*p4[4:1]/6b,
,,
{512}
3-8[8:1],6-1[8:1]*-1[8:1],,,,,,,,,,,,,,,
,,,,,,,,,,,,,,,,
,,,,,,,,,,,,,,,,
,,,,,,,,,,,,,,,,
,,,,,,,,,,,,,,,,
,,,,,,,,,,,,,,,,
,,,,,,,,,,,,,,,,
,,,,,,,,,,,,,,,,
{4}
3/6,
{8}
2V84[4:1],,2/5,6,7V51[4:1]*V51[4:1],,2/7,3,
{4}
4-2[8:1]*-8[8:1],4,
{512}
1-5[8:1],7-5[8:1],,,,,,,,,,,,,,,
,,,,,,,,,,,,,,,,
,,,,,,,,,,,,,,,,
,,,,,,,,,,,,,,,,
{8}
8,1/7,,
{4}
3<7[4:1]*<7[4:1],7>3[4:1],3qq4[8:3]*qq4[8:3],7bqq8[8:3],
,2b,1b-5[8:1],1b,
{8}
4/6,3,2/5^8[8:1],,3^8[8:1],3,4-8[8:1],4,
1^4[8:1],1,7^4[8:1],7,8-4[8:1],,8,,
3/5,6,4/7^2[8:1],,5^2[8:1],5,6-2[8:1],6,
3^6[8:1],3,1^6[8:1],1,2-6[8:1],2,2,,
1-5[8:1]/7-3[8:1],1/7,1/7,,2-6[8:1],8-4[8:1],2,8,
1,1h[4:1],5s1[4:1],5,4,4,4,,
7/8,1/6,2/5,1/8,2/7,3/6,1/2,3/8,
4-8[8:1]/7,,,,1b^6[16:1]/8b^3[16:1],1b/8b,,,
5h[8:3],,4,3h[8:3],,4,6h[8:3],,
5,2h[8:3],,4,8q4[8:1]*v5[8:1],,,,
6h[8:3],,5,4h[8:3],,5,7h[8:3],,
5,1h[8:5],,,4<8[4:1],,,,
4h[8:3],,5,6h[8:3],,5,3h[8:3],,
4,7h[8:3],,5,1v4[8:1]*p5[8:1],,,,
3h[8:3],,4,5h[8:3],,4,2h[8:3],,
4,8h[8:3],,,1w5[8:1],,,,
3-8[8:1],3,3/6h[4:1],,5-1[8:1],5,6-8[8:1],6,
4qq7[8:3],4,7,7>5[8:3],,,,,
6-1[8:1],6,3h[4:1]/6,,4-8[8:1],4,3-1[8:1],3,
5pp2[8:3],5,2,2<4[8:3],,,,,
{16}
1-5[8:1],,,,1,,,,4/6,,3,5,2,,7,4,
8,,1,6,2,,8,4,6,,8,4,2,,1/7,,
6b-1[16:1],,6,4,6,,2b-5[16:1],,2,8,2,,7b,,7,1,
{8}
7b-3[8:1],,,,
{512}
3bV15[8:1],6bV84[8:1]*V84[8:1],,,,,,,,,,,,,,,
,,,,,,,,,,,,,,,,
,,,,,,,,,,,,,,,,
,,,,,,,,,,,,,,,,
{8}
3b/6b,,,
{1}
,
,
,
E
