&title=碧天伴走
&artist=MyGO!!!!!
&first=0.8
&des=yukikaze
&des_5=yukikaze
&lv_5=13+
&inote_5=(192){4},{16},,,,,,,,,,,,4,
4,7,,,,{8}2-5[8:1],,6,,8,
8,3/7p3[8:1],,2>5[8:1],,7,,8,
8,1,1,2/7-4[8:1],,3,,2,
4,3/4,{16}2,1,{8}2,6,6/5,{16}7,8,{8}7,
5/4,1b,,2,2,8,8,3,
3,6,6,8/4,4,3/7,3,6/2,
6,1b/5b,,3x,{16}3,4,{8}2,7x,{16}7,8,
{8}6,2x,{16}2,1,{8}3,6x,{16}6,5,{8}7,{16}1x,8,
1,8,1>8[32:15],8,1,8,,,,,,,,,,,1,
8,{8}7b/2b,,3,{4}3-5[8:1],5-2[8:1],
7p3[8:1],{8}7,1-5[8:1],,8,,6-1[8:1]*-2[8:1],
,6,,4x,3,2,{4}8/1,
{8}7V51[4:1],2,{4}3,{8},2/8,{4}7/3,
{8}5,5b,,2,{4}2-5[8:1],5-1[8:1],
7-4[8:1],{8}3,3>1[8:1],,6,,7-4[8:1]/8-4[8:1],
,7/8,,2,3,7,{4}6,
{8}4,5/3,{16},,2,1,3,8,{8}4b,{16},,6,5,
{8}7b,,,7,{4}7-1[8:1],1-6[8:1],
3p7[8:1],{8}3,5-1[8:1],,4,,2-5[8:1]*-6[8:1],
,2,,8x,7,6,{4}4/5,
{8}3V15[4:1],6,{4}6,{8},6/4,{4}3/7,
{8}1,1b,,7<5[8:1],,2x,,7-4[8:1],
1,7,,2>4[8:1],,7x,,2-5[8:1],
8,2,,6h[8:3],5,4,3h[8:3],5,
6,7,{16},,7,8,6,1,{8}5b,{16},,3,4,
{8}2b,,,6h[4:1],,5h[4:1],,4h[4:1],
,1>4[4:1],,4<7[4:1],,7>2[4:1],,2>5[4:1],
,5pp5[8:3]*qq5[8:3],,,,,,,,4/3,
{4}2/5,{8}8b,6b,4b,2b,
,,,3h[4:1],,4h[4:1],,5h[4:1],
,8<4[4:1],,4>8[4:1],,8p4[4:1],,4>8[4:1],
,8w4[4:1],,,,,,5/3,
,6/4,{16},,3,5,3,5,4,6,4,6,3,5,
2,6,{8}1b,,7/8,7-4[8:1]/8-3[8:1],6/1,{4}7/8,
{8}1<6[8:1]/2>5[8:1],8/3,{4}2/1z5[32:9],{16},,,,,,,,4,
5,{8}6b/3b,,7x-1[8:1],2>4[8:1],7,{4}2-6[8:1],
2x/5-8[8:1]*-2[8:1],5V73[4:1],5,4-7[8:1]*-8[8:1],
4b,{8}6x-2[8:1],5,4-1[8:1],3,{4}8<6[8:1],
8/5w1[8:1],5b,{8},Cf/B6/B5/B4,,,2x,
4/3-7[8:1],4,5-8[8:1],,2-5[8:1],,7<4[8:1],
,3,,8/2,{4}8>3[8:1]/2-6[8:1],2/8,
{8},4x,5,1/2,{16}3,4,{8}3,7,7/8,
{16}6,5,{8}6,1,8,{16}2,3,{8}4b/5,{16},,7,6,
{8}4/5b,{16}4x,5x,4x,5x,{8}1x-5[8:1],6<1[8:1],1>4[8:1],{4}6,
5-7[8:1]*-1[8:1],5pp2[8:3],5,{8}4,4,
3,1x/2x,{16}6x,5x,{8}7p2[8:1],,7,{4}1>4[8:1],
1/5,{8}7-5[8:1],5x-2[8:1]*-1[8:1],,,,,4,
5/4,6,8h[4:1]/1v6[8:1],,,,7h[4:1]/8v5[8:1],
8,,,6h[4:1]/7v4[8:1],,,,5h[4:1]/6v3[8:1],
6,,,7x/2x,{16},8,{8}1,{4}7/6,
3/2,{8}5/4,{16}8x,7,6,5,{8}4b,{16}1x,2,3,4,
{8}5b,,,8x/3x,,7/1h[8:1],6,2/5h[8:1],
3,6,8/7,1/6h[8:1],2,8/3,,4/6,
5,3/4,,8/7,,1/5h[8:1],2,6/3h[8:1],
7,2,1/8,7-4[8:1],7,{32}1,B6f/B5,,,,,,,{8}2-6[8:1],
2,{32}8,Cf,,,,,,,{8}8x/7x,,2/8h[8:1],3,7/4h[8:1],
6,3/5,2,7/1h[8:1],6,2,5,6/1,
,6,5,7h[4:1],,6,6,5h[4:1],
,4,4,3h[4:1],,2,2,1h[4:1],
,3x,{16}3,4,{8}2,,6,6,6/5,
5/4,4,5/3,4/2q6[4:1],,,,7>5[8:7],
,,,3h[8:5],,,,,,,,6/5,
6/5,5/4,5/4,{16}3x,2,
{8}1/5,6,6/3,7xV16[4:1],4,7,5-1[8:1],4,
5b,6x,,4,5-8[8:1],6,{4}1>3[8:1],
1/4w8[8:1],4b,{8},Cf/B5/B4/B3,,,7,
5/6-2[8:1],5,4-1[8:1],,4/7-4[8:1],,7/2>5[8:1],
,6/2,,3/7,{4}3v1[8:1]/7v5[8:1],3/7,
{8},1,8,5/6,{16}7,8,{8}7,3,3/4,
{16}2,1,{8}2,5,4,{16}5,6,{8}7b/4,{16},,4,3,
{8}5/2b,{16}5,1,5,1,{8}8xp4[8:1],3>8[8:1],8<5[8:1],{4}3,
4-2[8:1]*-8[8:1],4qq7[8:3],4,{8}5,5,
6,7x/8x,{16}3x,4x,{8}2q7[8:1],,2,{4}8<5[8:1],
8/4,{8}2>4[8:1],4x<7[8:1]*q8[8:1],,,,,5,
4/6,3/7x,2h[4:1]/8v3[8:1],,,,2h[4:1]/1v4[8:1],
1,,,3h[4:1]/2v5[8:1],,,,4h[4:1]/3v6[8:1],
3,,,7x/5x,6/4,3,{4}2/5,
1/6h[4:1],{8}1,{16}5/1x,2,3,4,{8}5b/8b,{16}8x,7,6,5,
{8}8b/4b,,,4x/7x,6,3/5h[8:1],2,6/1h[8:1],
7,2,4/3,5/2h[8:1],6,4/7h[8:1],1,8/2,
5,6/4,3,1/2,8,4/7h[8:1],3,5/2h[8:1],
6,7,1/8,2-5[8:1],2,{32}2b/8,B4/B3f,,,,,,,{8}7-3[8:1],
7,{32}1/7b,Cf,,,,,,,{8}1x/2x,3,6/4h[8:1],7,3/8h[8:1],
2,7/1,6,3/5h[8:1],2,6,1,2/5,
5/2,3,4,3/2h[4:1],,3,3,5/4h[4:1],
,5,5,6/7h[4:1],,6,6,5/8h[4:1],
,2x,{16}2,1,{8}3,,3,4/3,3/5,
4/6,6,5/7,6/8-4[4:1],,,,2q7[8:3],
,,,8xp3[2:3]*-5[2:3],,,,,,,,,,,,,,,,1x<7v5<6[2:3]*>3v5<6[2:3],
E
