&title=エンドレス?てゐマパーク
&artist=IOSYS
&first=4.28
&des=KoishiKnight
&lv_1=3
&lv_2=6
&lv_3=8
&lv_4=11
&lv_5=12+
&inote_1=(128)
{1}1,2,3,4,5,6,7-3[4:3],,
{1}8,7,6,5,4,3,2-6[4:3],,
{1}1,2,3,4,5,6,7,8,
{1}1,2,3,4,5,6,7,8,
{1}1,2,3h[2:1],4h[2:1],5h[2:1],6h[2:1],7h[2:1],8h[2:1],
{1}1h[2:1],2h[2:1],3,4,5,6,7,8-5[4:3],
{1},2,3,4-1[4:3],,6,7,8,
{1}1,2,3,4,5,6,7,8,
{1}1,2,3,4b,
{1},,,,,,E
&inote_2=(128)
{16}1,,,,2,,,,3,,,,4,,,,5,,,,6,,,,7,,,,
{64}8,,,,,,,,8,,,,
{16},7-4[4:1],,,,8,,,,1,,,,2-5[4:1],,,,1,,,,8,,,,7h[8:1],,,,2h[8:1],,,,
6,,,,5-8[4:1],,,,4,,,,3,,,,2,,,,1-4[4:1],,,,8,,,,7,,,,
7h[8:3],,,,2,,,,2h[8:3],,,,7,,,,5,,,,6,,,,7h[8:1],,,,2h[8:1],,,,
6,,,,5-1[4:1],,,,4,,,,3,,,,3,,,,4-8[4:1],,,,5,,,,6,,
{16},,4/7,,,,5,,,,2/5,,,,4,,,,1/6,,,,8,,,,2h[8:1],,,,7h[8:1],,,,
2,,,,3-8[4:1],,,,4,,,,5,,,,7,,,,6-1[4:1],,,,5,,,,4,,,,
3h[8:3],,,,6,,,,6h[8:3],,,,3,,,,1,,,,2,,,,3h[8:1],,,,6h[8:1],,,,
7,,,,8-4[4:1],,,,1,,,,2,,,,2,,,,1-5[4:1],,,,8,,,,7,,
{16},,8,,,,8,,,,7,,,,7,,,,8b,,,,3,,,,4,,,,2,,,,
1,,,,7^4[4:1],,,,4,,,,3,,,,8,,,,2^5[4:1],,,,5,,,,6,,,,
1,,,,8,,,,2,,,,7,,,,3,,,,6,,,,4h[8:1],,,,5h[8:1],,,,
3,,,,1-6[4:1],,,,8,,,,7,,,,6,,,,8-3[4:1],,,,1,,,,2,,
{16},,4,,,,4,,,,3,,,,3,,,,4b,,,,2,,,,1,,,,3,,,,
4,,,,7^4[4:1],,,,4,,,,3,,,,8,,,,2^5[4:1],,,,5,,,,6,,,,
1/6,,,,3/8,,,,1/5,,,,4/7,,,,5/2,,,,4,,,,1,,,,2,,,,
6,,,,7-4[4:1],,,,8,,,,1,,,,3,,,,2-5[4:1],,,,1,,,,8,,,,
{8},,,,7,,8,,1,,,,,,,,
6,,,,4,,,,2^5[2:1],,,,,,,,
,,,,2,,1,,8,,,,,,,,
2,,,,4,,,,6p4[4:5],,,,,,,,,,,,,,,,
{16}1h[8:1],,,,7h[8:1],,,,3,,,,5,,,,5,,,,4,,,,2h[8:1],,,,7,,,,
7,,,,5/4,,,,5,,,,5,,,,7,,,,2,,,,4,,,,4,,,,
1,,,,2h[8:1],,,,5,,,,6,,
,,8,,,,7,,,,5,,,,6,,,,
7h[8:1],,,,2h[8:1],,,,5,,,,7,,,,6,,,,3,,,,8,,,,8,,,,
{16}5h[8:1],,,,3h[8:1],,,,3,,,,1,,,,1,,,,2,,,,4h[8:1],,,,6,,,,
4,,,,1/8,,,,1,,,,7,,,,5,,,,3,,,,6,,,,6,,,,
7,,,,2,,,,5,,,,5,,
,,1,,,,2,,,,3,,,,4,,,,
3h[8:1],,,,5h[8:1],,,,2,,,,1,,,,7,,,,2,,,,7,,,,7,,
,,1-4[4:1],,,,7,,,,5-8[4:1],,,,3,,,,1,,,,2,,,,7,,,,2,,,,8,,,,
6,,,,3,,,,7,,,,8h[8:1],,,,3h[8:1],,,,5,,,,5,,
,,5-8[4:1],,,,3,,,,1-4[4:1],,,,7,,,,5,,,,6,,,,3,,,,6,,,,4,,,,
2,,,,7,,,,3,,,,4h[8:1],,,,7h[8:1],,,,1,,,,1,,,,
6b,{1},,,,,,E
&inote_3=(128)
{16}1,,8,,2,,7,,3,,6,,4,,5,,3,,6,,2,,7,,1,,8,,
{64}1,,,,8,,,,1,,,,
{16},2/5,,3,,4,,3,,4/7,,6,,5,,6,,3/8,,2,,1,,3,,7h[8:1],,1,,2h[8:1],,8,,
7,,,,5-8[4:1],,,,3,,4,,4b,,,,2,,,,4-1[4:1],,,,6,,5,,5b,,,,
7h[8:3],,1,,2,,3,,2h[8:3],,8,,7,,6,,5,,4,,6,,3,,7h[8:1],,8,,2h[8:1],,1,,
6,,,,5-1[4:1],,,,4,,3,,3b,,,,3,,,,4-8[4:1],,,,5,,6,,6b,,
{16},,4/7,,6,,5,,6,,2/5,,3,,4,,3,,1/6,,7,,8,,6,,2h[8:1],,8,,7h[8:1],,1,,
2,,,,3-8[4:1],,,,4,,5,,5b,,,,7,,,,6-1[4:1],,,,5,,4,,4b,,,,
3h[8:3],,7,,6,,5,,6h[8:3],,2,,3,,4,,1,,8,,2,,7,,3h[8:1],,5,,6h[8:1],,4,,
7,,,,8-4[4:1],,,,1,,2,,2b,,,,2,,,,1-5[4:1],,,,8,,7,,7b,,
{16},,8,,1,,8,,1,,7,,2,,7,,2,,8b,,6,,3,,5,,4,,7,,2,,8,,
1,,,,7^4[4:1],,,,4,,3,,3b,,,,8,,,,2^5[4:1],,,,5,,6,,6b,,,,
1,,1,,8,,8,,2,,2,,7,,7,,3,,3,,6,,6,,4h[8:1],,6,,5h[8:1],,3,,
3,,,,1-6[4:1],,,,8,,7,,7b,,,,6,,,,8-3[4:1],,,,1,,2,,2b,,
{16},,4,,5,,4,,5,,3,,6,,3,,6,,4b,,7,,2,,8,,1,,6,,3,,5,,
4,,,,7^4[4:1],,,,4,,3,,3b,,,,8,,,,2^5[4:1],,,,5,,6,,6b,,,,
1/6,,7,,3/8,,2,,1/5,,3,,4/7,,6,,5/2,,3,,4h[16:1],,5h[16:1],,2,,7,,1,,8,,
6,,,,7-4[4:1],,,,8,,1,,1b,,,,3,,,,2-5[4:1],,,,1,,8,,8b,,,,
{8},,,,7,,8,,1s5[2:1],,,,,,,,
6,,5,,4,,3,,2<6[1:1]*>6[1:1],,,,,,,,
,,,,2,,1,,8z4[2:1],,,,,,,,
2,,3,,4,,5,,6qq1[4:5],,,,,,,,,,,,,,,,
{16}1h[8:1],,8,,7h[8:1],,2,,3,,4,,5,,6^1[4:1],,5,,5,,4,,3,,2h[8:1],,1,,7,,8,,
7,,6,,5/4,,3^8[4:1],,5,,4,,5,,6,,7,8,7,,2,1,2,,4b,,8,,4b,,,,
1,,2,,2h[8:1],,4,,5,,5,,6,,
8,,1,,7,,2,,5,,4,,6,,3,,,,
7h[8:1],,3,,2h[8:1],,6,,5,,4,,7,,2,,6,5,6,,3,4,3,,8b,,4,,8b,,,,
{16}5h[8:1],,4,,3h[8:1],,6,,3,,2,,1,,8^5[4:1],,1,,1,,2,,3,,4h[8:1],,5,,6,,3,,
4,,7,,1/8,,2^5[4:1],,1,,8,,7,,6,,5,4,5,,3,4,3,,6b,,2,,6b,,,,
7,8,7,,2,1,2,,5,4,5,4,5,,
1,,8,,2,,7,,3,,6,,4,,5,,,,
3h[8:1],,6,,5h[8:1],,4,,2,,7,,1,,8,,7,5,7,,2,4,2,,7b,,3,,7b,,
,,1-4[4:1],,8,,7,,6,,5-8[4:1],,4,,3,,2,,1,,2,,2,,7,,7,,3/6,,2,,1,,8,,7,,
6,,5,,3,,4,,7,,2,,8h[8:1],,1,,3h[8:1],,6,,5,,4,,5,,
,,5-8[4:1],,4,,3,,2,,1-4[4:1],,8,,7,,6,,5,,6,,6,,3,,3,,2/7,,6,,5,,4,,3,,
2,,1,,7,,8,,3,,6,,4h[8:1],,5,,7h[8:1],,2,,1,,8,,1,,,,
6b,{1},,,,,,E
&inote_4=(128)
{16}4h[8:1],,5,,3/6,,7h[8:1],,8,,2h[8:1],,1,,4/5,,8h[8:1],,1,,2/7,,4,,6,,2,,
{64}8,,1,,8,,1,,8,,,,
{16},1/3,,2,1,2h[8:1],,7,,6/8,,7,8,7h[8:1],,2,,3/8,,2,1,3,8,2,1,3h[8:1],,8,,6h[8:1],,1,,
4/7,,6pp1[8:3],5,6,,5,,4,,3b,,3b,,,,5/2,,3qq8[8:3],4,3,,4,,5,,6b,,6b,,,,
2h[8:1],,5,3,5h[8:1],,4,,7h[8:1],,4,6,4h[8:1],,5,,7,8,6,1,7,8,6,1,7h[8:1],,4,,2h[8:1],,5,,
6h[8:1],,8,,3h[8:1],,1,,7h[4:1],,8b,,8b,,,,6h[4:1],,,,4h[8:1],,8h[8:1],,2h[4:1],,1b,,1b,,
{16},,4/6,,6,5,6h[8:1],,3,,4/2,,3,4,3h[8:1],,6,,4/7,,6,5,7,4,6,5,7h[8:1],,4,,3h[8:1],,5,,
8/3,,2pp5[8:3],1,2,,1,,8,,7b,,7b,,,,1/6,,7qq4[8:3],8,7,,8,,1,,2b,,2b,,,,
6h[8:1],,1,7,1h[8:1],,8,,3h[8:1],,8,2,8h[8:1],,1,,7h[8:1],,5,,2h[8:1],,4,,8h[8:1],,4h[8:1],,6h[8:1],,2,,
3/5,,2q5[8:3],4,2,,4,,5,,6b,,6b,,,,4h[4:1],,,,7p5[4:1],,3,,2,,1b,,1b,,
{16},,1,8,2,7,1,8,2,7,1,8,2,7,1,8,2,7,1b,,3,4,3,,6,5,6,,2,,8,,4,,
8/3,,2pp8[8:3],1,2,,8,,7,,6b,,6b,,,,1/6,,7qq1[8:3],8,7,,1,,2,,3b,,3b,,,,
5,4,6,3,5,4,6,3,5,4,7,2,6,3,7,2,6,3,8,1,7,2,8,1,8h[8:1],,3,,1h[8:1],,6,,
2/5,,3qq7[8:3],4,3,,4,,5,,6b,,6b,,,,7/4,,6pp2[8:3],5,6,,5,,4,,3b,,3b,,
{16},,1,8,1,8,2,7,2,7,1,1,8,8,2,2,7,7,1b,,6,4,6,,3,5,3,,7,,1,,5,,
1/3,,2qq5[8:3],8,2,,8,,7,,6b,,6b,,,,8/6,,7pp4[8:3],1,7,,1,,2,,3b,,3b,,,,
2h[8:1]/5,,6,,7h[8:1]/3,,5,,2h[8:1]/4,,3,,8h[8:1]/5,,7,,2h[8:1]/6,,4,,8h[16:1],,1h[16:1],,7,,3,,5,,1,,
2/4,,3p8[8:3],5,3,,5,,6,,7b,,7b,,,,5/7,,6q1[8:3],4,6,,4,,3,,2b,,2b,,,,
{8},,,,7h[4:1],,1h[4:1],,8s4[2:1],,,,,,,,
5q1[8:1],1,2,3,4p8[8:1],8,7,6,5qq1[1:1]*pp1[1:1],,,,,,,,
,,,,2h[4:1],,8h[4:1],,1z5[2:1],,,,,,,,
1v6[8:1],5,6,7,8v3[8:1],4,3,2,1w5[4:5],,,,,,,,,,,,,,,,
{16}2/6,,7,4,7h[8:1],,1,,6,5,6,4,6,,2,8,1,,6,5,6,,3,4,3-8[8:1],,7-4[8:1],,,,,,
1h[8:1],,5,,7,8,7,1,7,,4,5,3,,6,5,7,4,6,5,7,4,6,5,7bq3[8:1],,1,,3b,,,,
3/7,,2,5,2h[8:1],,8,,3,4,3,5,3,,
8,1,7,,3,4,3,,6,5,6-1[8:1],,2-5[8:1],,,,,,
8h[8:1],,4,7,3,,5,2,6,,2,,8,,3,4,2,5,3,4,2,5,3,4,2bp6[8:1],,8,,6b,,,,
3,,7,,1,,5,,7,8,7,8,7,,2,4,3h[8:1],,8,,6h[8:1],,1,,2h[8:1],,5,,3,4,3,4,
2h[8:1],,8,,7-3[8:1],,7,,1-5[8:1],,1,,6-2[8:1],,6,,4,,4,,3,4,3,5,3bp7[8:1],,1,,7b,,,,
4,5,4,5,3,6,3,6,4,5,3,6,4,,
8,,4,,6,,2,1,3,1,2^5[8:1],,6^1[8:1],,,,,,
4h[8:1],,8,3,7,,1,6,2,,6,,4,,7,8,6,1,7,8,6,1,7,8,6bq2[8:1],,8,,2b,,
,,3,,7,8,7,,2,,6,,2,1,2,,7,8,6,,4,5,3,,1,2,8,,3/7,,8,,4,,6,5,6,,
7,,2,1,3,,8,1,7,,5,,2,,3,,6,,4,,7^4[8:1],,2,,8,,
,,6,,2,1,2,,8,,3,,7,8,7,,2,1,3,,5,4,6,,8,7,1,,2/6,,1,,5,,3,4,3,,
2,,7,8,6,,1,8,2,,4,,7,,6,,3,,5,,2^5[8:1],,7,,1,,,,
6b,{1},,,,,,E
&inote_5=(128)
{16}
4,5,4,,3/6,,2,1,2,,7,8,7,,2/6,,3,4,3,,2/5,,7,1,8,,3,,
{64}8,7,6,5,4,3,2,1,8b,,,,,,,,
{16}2/4,,3,5,3,,4/6,,5/7,,6,4,6,,5/3,,6/1,,8,7,1,6,2,5,3,,4,6,2,,1/8,,
4/7,,6,5,6,,2-6[8:1],,8-4[8:1],,2b,,8b,,,,5/2,{16},3,4,3,,7-3[8:1],,1-5[8:1],,7b,,1b,,,,
7/4,,5,3,2/6,,4/8,,2/5,,4,6,7/3,,1/5,,2,6,4,8,1,5,3,7,2h[8:1],,4h[8:1],,6h[8:1],,8,,
3h[8:1],,6,,4h[8:1],,7p3[8:1],,1q5[8:1],,7b,,1b,,,,6h[4:1],,,,5h[8:1],,8p4[8:1],,2q6[8:1],,8b,,2b,,
{16},,7/4,,6,3,5,,4/8,,2/5,,3,6,4,,1/5,,8/3,,1,2,8,3,7,4,6,,5,3,7,,1/8,,
8/3,,2,1,2,,7qq5[8:1],,3qq1[8:1],,7b,,3b,,,,1/6,,7,8,7,,2pp4[8:1],,6pp8[8:1],,2b,,6b,,,,
8/3,,1,7,2/6,,4/8,,1/6,,8,2,3/7,,1/5,,2h[8:1],,5,,7h[8:1],,4,6,5h[8:1],,3h[8:1],,1h[8:1],,7,,
2h[8:1],,5,3,4h[8:1],,2-5[8:1],,6-1[8:1],,2b,,6b,,,,4h[4:1],,,,8h[8:1],,3-8[8:1],,7-4[8:1],,3b,,7b,,
{16},,2,1,4,7,3,8,5,6,8,7,2,5,1,6,3,4,2b,,6,5,7,4,8,3,1,,2,6,4,,1/8,,
7/3,,6,4,5-8[8:1],,5-2[8:1],,5-1[8:1],,5b,,5b,,,,2/6,,3,5,4-1[8:1],,4-7[8:1],,4-8[8:1],,4b,,4b,,,,
6,4,5,3,4,2,3,1,4,2,5,3,6,4,7,5,8,4,7,3,6,2,5,1,4h[8:1],,8,8,5h[8:1],,2,,
7/3,,2,8,1-5[8:1],,8-4[8:1],,1^6[8:1],,8b,,1b,,,,2/6,,7,1,8-4[8:1],,1-5[8:1],,8^3[8:1],,1b,,8b,,
{16},,2/4,3,5,3,4,4,2,2,5/7,6,4,6,5,5,7,7,1b,,3,4,2,5,1,6,8,,7,3,5,,8/1,,
3/7,,6,4,5^8[8:1],,5^2[8:1],,5-1[8:1],,5b,,5b,,,,2/6,,3,5,4^1[8:1],,4^7[8:1],,4-8[8:1],,4b,,4b,,,,
7h[8:1]/5,,1,,2/4,,6,5,7h[8:1]/4,,1,1,8,8,3,4,5h[8:1]/2,,8,,6h[16:1],5,3h[16:1],5,4,,8,2,6,,5/4,,
3/7,,2,8,1-5[8:1],,7-3[8:1],,1^6[8:1],,7b,,1b,,,,2/6,,7,1,8-4[8:1],,2-6[8:1],,8^3[8:1],,2b,,8b,,,,
{8},,,,7-2[4:1],,2p4[2:1],,4,,,,,,,,
3-8[8:1],3,7-4[8:1],7,2-5[8:1],2,6-1[8:1],6,5q4[1:1]*<4[1:1],,,,,,,,
,,,,7V15[4:1],,5V72[4:1],,2pp2[2:1],,,,,,,,
2^5[8:1],2,8^3[8:1],8,6^1[8:1],6,4^7[8:1],4,1b<2[4:5]*>8[4:5],,,,,,,,,,,,,,,,
{16}8,8,2,1,2h[8:1],,4,,6,5,6,7,6,,1,7,3,,3,4,3,1,2,8,1^4[16:1],,4,,{48}5,6,7,{16}8,,,
7h[8:1],,5,,3,4,3,2,3,,3,7,1,,{32}5,4,{16},8,1,6,5,8,1,4,3,8bw4[8:1],,1/7,,8b,,,,
2,2,7,8,{16}7h[8:1],,{32}1,1,{16},6,8,7,1,8,,
2,6,4,,2,1,2,4,3,5,4^1[16:1],,1,,{48}8,7,6,{16}5,,,
3,1,2,8,1,,6,4,5h[8:1],,3h[8:1],,7h[8:1],,{32}1,8,{16},4,5,8,7,4,5,2,1,4bw8[8:1],,3/5,,4b,,,,
3,3,7,7,1,,5,4,7,8,6,8,5,,1,8,2h[8:1],,4,,7h[8:1],,4,6,5h[8:1],,1,,8,2,6,4,
8h[8:1],,2,1,4,7,,6,1,,1,5,3,,8,4,6h[8:1],,2,4,1,8,5,7,1bw5[8:1],,2/8,,1b,,,,
2/8,3,1,3,7,7,1,1,3,3,5,5,7,,
3,7,1,,6,5,6,8,7,1,8^5[8:1],,5,,{48}4,3,2,{16}1,,,
7,5,6,4,5,,2,8,1h[8:1],,7h[8:1],,3h[8:1],,{32}5,4,{16},8,1,6,5,8,1,4,3,8bw4[8:1],,1/7,,8b,,
,,2,2,6,6,1/5,,7/3,,8,8,4,4,3/7,,2,4,3,3,7,7,2,1,5,6,3/7,,1/5,,8,8,4,4,7,3,5,,
2,1,3,1,4,,4,8,2,,7,3,5,1,6,2,8,4,7,3,5w1[8:1],,6/4,,5,,
,,3,3,7,7,4/8,,2/6,,1,1,5,5,2/6,,7,5,6,6,2,2,7,8,4,3,2/6,,4/8,,1,1,5,5,2,6,4,,
7,8,6,8,5,,5,1,7,,2,6,4,8,3,7,1,5,2,6,4w8[8:1],,3/5,,4,,,,
2b/6b,{1},,,,,,E
