&title=カトラリー
&artist=MIKU、奏、MAFUYU
&first=0
&des=luvlily
&lv_4=8+
&lv_5=12+
&inote_1=
&inote_2=
&inote_3=
&inote_4=
(132){1},
{4}1,,2,,3,,4,,5,,6,,7,,8,,
&inote_5=(108){1},{12}7,
{24}5,4,,2,,,
{12},,7,
{24}5,4,,2,,,
{12},,2,
{24}4,5,,7,,,
{12},,4,
{24}2,1,,3,,,
{24},7,,,6,,5,4,,3,6h[16:3],,,,,
{24},7,,
{24}6,4,,5,,,,,,
{24},7,,
{24}6,4,,5,,,,,,2,1,,
{24},,,,8-4[12:1],,
{24}2,1,,
{24}7,8,
{48},,
{24}6,6,,2,1,,8,1,,1,
8-4[12:1],,
{24}5,6,,
{24}1,8,,,2,,,
1-5[12:1],,
{24}4,3,,
{24}8,1,,,7,,,
8-4[12:1],,
{24}5,6,,
{24}1,8,,,3,,,
4-8[12:1],,
{24}1,2,,
{24}5,4,,,6,,,
5-1[12:1],,
{24}8,7,,
{24}4,5,,,3,,,
4-8[12:1],,
{24}1,2,,
{24}5,4,,,3,,,2,,
1,28,37,46,5-1[12:1],,,,,,
5-2[12:1],,
3,3,,,5-8[12:1],,7,7,,,5-2[12:1],,
3,3,,,5-8[12:1],,7,7,,,5-2[12:1],,
3,3,,,5-8[12:1],,7,7,,4,5,,
,3,,,1>4[12:1]/5,,,,,8,1<6[12:1],,
7,7,,2,1>4[12:1],,3,3,,8,1<6[12:1],,
7,7,,2,1>4[12:1],,3,3,,8,1<6[12:1],,
7,7,,2,1>4[12:1],,3,3,,8,1,,
,,,8,8,,,,,,
1-5[12:1],,1,8,,,
1,,6,6,,,
8-4[12:1],,2,1,,,
8,,2,2,,,
1>4[12:1],,7,8,,8,
1,,6,6,,,4,,
4,5,,5,3,,
3,5,,
5,4-8[12:1],,,6,,5,4,,,6,,
6,5-1[12:1],,,3,,4,5,,,4,,
3,3,,,7,,2,1-5[12:1],,1,8,,
8,1,,,,,,1,,
{24}2,8,,
{48}1,,
{4},
{8}6>3[2:1],7,8,1,2,1,8,7,1,2,,18,,2,3>6[1:1],,5,6,7,6,5,4,3,2,1,8,,18,,,,,
4>1[4:1]/5,2,4,7,8<5[4:1],6,8,3,
{16}2,2,,1,,,18,,7,7,7,
{48},1,,8,,,,,,
{48},,,,
{24}1,2,,,,,8,7,,,8,,1,8,,,1,,8,1,8,2,7,,3,6,,4,5,,,
{8}53,52,2<8[12:1]/6<8[12:1],35,
2b>4[12:1]/6b>4[12:1],,
2b/6b,
{16},1,
{8}8<5[8:1],5qq3[8:1],3>8[8:1],4,4,,
2/8q6[8:1],7,4q2[8:1]/8,3,6,7,8h[16:3],
,,2,1h[16:3],,,2q6[12:1],8,
{16}2,7q4[8:1],,1,,7,,,
{8}1,1qq7[12:1]*pp3[12:1],,
1bq5[12:1]*p5[12:1],,1b,
{16},8,
{8}1<6[8:1],6>3[8:1],3qq1[8:1],,
6,,3qq1[8:1]/5,2,3/7qq5[8:1],6,3>8[8:1]/7,2,3,
5<8[4:1],5,8p4[4:1],8,4q2[4:1],4,2w6[16:3],2,,,
{24},,2,1,,1,8,,8,7,,7,8,,,
{2}1bw5[8:1],
{48}8-4[12:1],,,,2,,6,,,,1,,8,,,,,,,,,,,,
5w1[12:1],,,,4,,3,,,,6,,5,,,,,,,,,,,,
8-4[12:1],,,,7,,1,,,,1,,8,,,,,,,,,,,,
5qq8[4:1],,,,1,,7,,,,4,,5,,,,,,,,,,,,
2>5[12:1],,,,1,,8,,,,8,,2,,,,,,,,,,,,
4w8[12:1],,,,5,,6,,,,3,,4,,,,,,,,,,,,
1qq4[4:1],,,,2,,1,,,,8,,1b,,,,5b,,,,5b,,,,
6<1[12:1],,,,5,,4,,,,2,,6,,,,,4,,4,,,,,
3>8[12:1],,,,4,,3,,,,7,,3,,,,,,5,,,,,,
1w5[12:1],,,,8,,7,,,,2,,1,,,,,,,,,,,,
7qq2[4:1],,,,5,,4,,,,3,,7,,,,,1,,1,,,,,
3qq6[4:1],,,,1,,8,,,,7,,3,,,,,5,,5,,,,,
8w4[12:1],,,,7,,5,,,,7,,8,,,,,,,,,,,,
{8}45,46,26,28,1b/8b,,,
{24},,,
{4}
4qq4[4:1]*pp4[4:1],,,,4qq5[4:1]/5pp4[4:1],,,,6pp4[4:1]/3qq5[4:1],,,,
8-4[12:1]/7-5[12:1],,1-5[12:1]/2-4[12:1],
{24},,,,,4,5,,5,3,,2,6,,2,7,,7,2,,1,8,,8,1,,1,7,,8,7,,1,8,,2,1,,1,2,,8,1,,7,8,,8,7,,
1,7,,7,1,,7,5,,5,7,,1,5,,5,7,,3,7,,3,5,,5,1,,1,5,,5,7,,7,5pp5[4:1],,5,4,,4,5q2[4:5]*>2[4:5],,,,,,,,,,,,
{4},,,,,E
