&title=星降る海
&artist=Aqu3ra/月見ヤチヨ(cv.早見沙織)
&first=0
&des=Zqu3ra
&des_5=
&lv_5=12+
&inote_5=(101){4},,,,E7,
E6,E2,E3,
E8,E7,E3,E4,
E6,E5,E1,E2,
E8,E7,E3,E4,
A8,E1,E2,A2,
D8,B8,B2,D3,
D7,B6,B4,D4,
A6,E6,E5,A4,
{16}3bx/7bx-3[8:1],,,4,{8}7,1,{16}6,5,{8}7,{16}4,5,{8}3,
{16}2/6,,,6,{8}5,7/3,{16}2-5[8:1],4,{8}3,{4}5/2,
{16}3x/7x-3[8:1],,,4,{8}7,1,{16}6,5,{8}7,{16}4,5,{8}3,
{16}2/6,,,3,{8}5,{16}2,4,3,6,5,8,2,4,3,5,
6bx/2bx-6[8:1],,,5,{8}2,8,{16}3,4,2,2,5,4,{8}6,
{16}7/3,,,3,{8}4,2/6,{16}7-4[8:1],5,{8}6,4/7,2,
{16}3/7-3[8:1],,,4,{8}7,1,{16}6,5,7,7,4,5,{8}3,
{16}2/6,,,3,{8}5h[8:1],{24}E3,B2,B1,{16}7,5,6,3,5,1,5,2,
4xh[16:3],,,5>2[16:3],,,{8}7,{4}7pp8[16:3],8,
{16}5h[16:3],,,4V68[16:3],,,{8}3,{4}3qq2[16:3],1,
{16}4h[16:3],,,5h[16:3],,,{8}6,{16}6>3[8:1],5,,,,,,,4h[16:3],
,,5h[16:3],,,{8}6,{16}6-3[8:1],5,,,{4}6x/3x,
{16}2/4h[16:3],,,6-2[8:1],,,{8}5,{4}5pp4[4:1],4,
{16}1h[16:3],,,3-7[8:1],,,{8}8,{4}8pp5[4:1],5,
{16}7h[16:3],,,6h[16:3],,,{8}5,{16}5p1[8:1],3,,,,,,,7h[16:3],
,,6h[16:3],,,{8}5,{16}5p1[8:1],3,,,{4}7x/5xpp4[8:3],
{2}3h[8:7],{48}B1,B2,,,,,,,,,,,,,,,,,{8}4h[8:1],
{4}5h[4:1],6h[8:5],{48}B8,B7,,,,,,,,,,,,,,,,,{8}5,
{4}4>1[16:3],{8}4,8,{4}7<4[16:3],{8}7,3,
{4}2<7[16:3],3p6[16:3],4v5[8:1],8h[4:1],
{32}A3,E4,{16}E5,{32},,B2,C,{8}B6,{32}A1,E1,{16}E8,{8}6x-2[8:1],3/5,{4}6x/2x,
{32}A3,E4,{16}E5,{32},,B2,C,{8}B6,{32}A1,E1,{16}E8,{8}6x<1>4[16:3],1,{4}6x/4x,
{16}1,,,3/4,{8}3,5/2,{16}3,4,{8}1,2/6,{16}4,6,
5,,,6/5,{8}6,4/7,{16}6,5,{8}8,{16}7pp8[1:1],3,6,4qq5[16:13],
,,,,,,,,,,,,,,,,,,{8}8x,
8x,8xh[8:1],{32}B6,C,{16}B2,,,{4}5x/3x,
{16}6b/2bh[16:3],,,4,{8}6<1[8:1],1/2,4qq5[4:1],3,4/8,6,
{16}6h[16:3],,,5,{8}6<1[8:1],2/1>4[8:1],{4}5qq8[4:1],5,
{16}6>4[32:3],,,5,{8}6<1>4[16:3],3,{4}6/1h[8:1],{8}1,5,
6-4[8:1],6,3,3,{16}2,4,3,6,1,4,3,5,
3b/7bh[16:3],,,5,{8}3>8[8:1],8/7,5pp4[4:1],6,5/1,3,
{16}3h[16:3],,,4,{8}3>8[8:1],7/8<5[8:1],{4}4pp1[4:1],4,
{16}3<5[32:3],,,4,{8}3>5[16:3],6,{4}3/8h[8:1],{8}8,4,
3-5[8:1],3,6,6,{16}7,5,6,3,6,4,5,2,
{8}8b,{16}7,5,{8}6,4/3,1,{16}2,4,{8}3,6/5,
7-4[8:1],5,3-8[8:1],1,7x-4[8:1],4x-7[8:1],{4}3h[8:1],
{8}1b,{16}2,4,{8}3,5/6,8,{16}7,5,{8}6,3/4,
2>5[8:1],4,6<1[8:1],8,2x>5[8:1],5x>2[8:1],{4}6h[8:1],
{8}1b,{16}8,5,{8}6,4/2,1,{16}3,6,{8}4>6[16:3],5/7,
{4}8/4bxpp3[4:1],4x/1bxqq2[4:1],1bx,{8}3,3,
6/5,{16}3,4,{8}2,1,3/4,{16}6,5,{8}7,8,
{16}2,2,6,6,3,3,{24}5,4,6,{16}2,2,4,4,1,3,5,7,
1b>4q5[8:5],,,C,,,{8}E1,,,{4}7,
{16}7<3pp6[8:5],,,E2,,,{8}E1,,,{4}1,
{16}6x/2x-6[8:1],,,5,{8}2,8,{16}3,4,{8}2,{16}5,4,{8}6,
{16}7/3,,,3,{8}4,{16}2,2,6,6,3,3,7,7,4,4,
{4}8b<5[8:1],8/4-7[8:1],4/1>4[8:1],1/5-2[8:1],
5/7-4[8:1],7/3-7[8:1],3/2-5[8:1],2/6-2[8:1],
{8}6/7,{16}8,8,{8}1,2/5,4/7,{16}6,6,{8}5,8/1,
{16}7,7,3,3,6,6,{24}4,5,3,{16}7,7,5,5,8bx,6bxq7[16:15],4bx,2bxq3[16:13],
E
