&title=Renegade
&artist=sky_delta
&first=0
&des=MUVIVIT
&lv_5=14
&inote_5=(186)
{1},,
{8}
2/8,,,,,3,,2/4,,,,,,6,5,7,,,,,,2/1,,3q6[8:5]/8,,,,,,,,,
7/1,,,,,6,,7h[8:4]/5,,6,5,4,3,8,7/3,5bz1[8:6]/1b-5[8:6],,,,,,,,,,,,,
1h[8:3]/6h[8:3],,,,
8/7^4[8:1],,4,,3,2-5[8:1]/4h[8:2],,2,,8,7,6/2,,5,4,3,
2^5[8:1]/1,,5,,6,7-4[8:1]/5h[8:2],,7,,2,1,3-8[8:1]/8-4[8:1],,3/8,,,
6b,5/6,3,3/4,6,5/7,3,4/2,8,7/5,1,2/4,
6/5,7/8,1/2-5[8:1],3,2b/5,6^3[8:1],7,6b,1-5[8:1],2,3/1b<3[8:4],2,,,,,
{16}8,7,6,5,8p5[8:6],1,2,3,4/8,,,,,,,,,,,,,,4p1[8:4],,,,,,,,,,,,,,
8-4[8:1],,,,
{8}8/1h[8:2],,,,1h[8:1],3,1h[8:1],4,1h[8:2]/5,,6,1h[8:1],7,1,2/8,3/7,
4/6h[8:2],,,,6h[8:1],4,6h[8:1],3,6h[8:2]/2,,1,6h[8:1],8,7,6/5,4/7,
3/8b,8,1/8,8,2/8,3/7,4/6,5,5b/4b,4,6/3,7/2,8-4[8:1]/1-5[8:1],,1/8,,
{16}2b,1,2,1,4,5,4,5,8b,7,8,7,1,6,2,5,3q6[8:3],,,,,,,,8-4[8:1],,,,8,,,,
2b-7[8:1],,,,2/7,,5h[8:3],,,,6,,6,7,8,1,2^5[8:1],,8,,2,,1,,8^3[8:1],,7,,6,,,,
7b-2[8:1],,,,7/2,,4h[8:3],,,,3,,3,2,1,8,7^4[8:1],,1,,7,,8,,1^6[8:1],,2,,3,,,,
4h[8:3]/3h[128:1],,3h[128:1],,,,2h[128:1],,2-5[8:1]/8h[128:1],,,,2/8h[128:1],,6h[128:1],,
,,4h[128:1]/6h[128:1],,,,3h[128:1]/5h[128:1],,3-8[8:1]/5-1[8:1],,,,,,,,
7,,,,3/4,,3,4,2,,1/2^5[8:1],,,,2/1,,,,8,,7/1,,2-7[8:1]/6-3[8:1],,,,6V82[8:5]/2V46[8:5],,,,,,,,,,,,,,,,,,
6,5,7h[8:2]/4b,,,,1,,2/8,,3/7,,6-4[8:1],,4-8[8:1],,3,,2,,
1-4[8:1]*^3[8:1],,,,1-5[8:1],,,,1/5,,6,,7,,8,,1/5,4,3,2,8,7,6,5,1,2,3,4,8,3,7,4,
5h[8:3]/6h[128:1],,6h[128:1],,,,7h[128:1],,7-4[8:1]/1h[128:1],,,,7/1h[128:1],,3h[128:1],,
,,5h[128:1]/3h[128:1],,,,6h[128:1]/4h[128:1],,6-1[8:1]/4-8[8:1],,,,4/6,,,,3,,4,,2/5,,3,,3,,4,,5/2,,1/6,,8,7,8,7,1,7,1,7,
{32}2b,3,4,5,6,7,8,1,{8}2v5[8:1]/6v1[8:1],,
2b/6b,,{16}2/8,,6,5,6,,4/8,,3/7,,2^5[8:1]/6^1[8:1],,,,2/6,,,,4/8,,2h[8:2]/6,,,,8,,8,7,
6/5^2[8:1],,,,5,,8-5[8:1],,,,8,,3^8[8:1],,,,3,,6,,5/3,,2,,1-5[8:1],,5-1[8:1],,,,,,
8,,,,1/7,,3,4,3,,5/1,,6/2,,7-4[8:1]/3-8[8:1],,,,7/3,,,,5^8[8:1]/1^4[8:1],,,,1/5,,,,
1h[8:4]/5,,,,{24}5,4,3,2,,,2,,,{8},2/8,7,1/6,2,3/8,6/5,1/7,3/4,2/8,7/5,3/4,
1b/5b,,{16}7/1,,3,4,3,,5/1,,6/2,,7^4[8:1]/3^8[8:1],,,,7/3q7[8:1],,,,3,,1h[8:2],,,,8,,1,2,
3/4-7[8:1],,,,4,,1^4[8:1],,,,1,,6-1[8:1],,,,6,,3,,4/6,,7,,8-4[8:1],,4-8[8:1],,,,,,
1,,,,8/2,,6,5,6,,4/8,,3/7,,2-5[8:1]/6-1[8:1],,,,2/6,,,,4^1[8:1]/8^5[8:1],,,,8/4,,,,
8h[8:8]/4,,,,2,,2,,2,,3,,3,,4,,4,,
{16}5,1,6,2,7,3,8,4,1/5,8/4,3/7,6/2,1/5,8,7,6,
{8}5h[8:1],7h[8:1],6h[8:1],8h[8:1],1h[8:1],6h[8:1],8h[8:1],7h[8:1],5h[8:1],7h[8:1],8,1s5[8:2]*z5[8:2],,,,,
8h[8:1],3h[8:1],4h[8:1],2h[8:1],1h[8:1],3h[8:1],8h[8:1],2h[8:1],4h[8:1],1h[8:1],8,{16}8,,1/7,,,2/6,,,3/5,,
{8}4h[8:1],2h[8:1],3h[8:1],1h[8:1],8h[8:1],3h[8:1],1h[8:1],2h[8:1],4h[8:1],2h[8:1],8,1z5[8:2]/7s3[8:2],,,,,
{16}6h[12:1]/7h[12:1],,,8h[12:1]/5h[12:1],,,1h[12:1]/4h[12:1],,,2/3,2/3,,
1h[12:1]/4h[12:1],,,8h[12:1]/5h[12:1],,,7h[12:1]/6h[12:1],,,1/8,8/1,,2/7,,3v8[8:2]/6,,,,,,8b>5[8:10],,,,,,,,
{32}7,6,,,,,,,,,,,,,,,,,,,,,,,,,,,,,,,7,6,,,,,,,,,,,,,,,
1<4[8:10],,,,,,,,,,,,,,,,2,3,,,,,,,,,,,,,,,,,,,,,,,,,,,,,,,2,3,,,,,,,,,,,,,,,
1>6[8:10],,,,,,,,,,,,,,,,8,7,,,,,,,,,,,,,,,,,,,,,,,,,,,,,,,8,7,,,,,,,,,,,,,,,
{16}8<3[8:10],,,,1,,,,2,,,,3,,,,2,,,,1,,,,8bw4[8:1],,,,,,,,
{16}
2b^8[8:1]/3,,,,2,,3,,2h[8:1],,4,,2h[8:1],,5,,2h[8:1],,6,,2h[8:1],,7,,2/8,3,4,5,6/7,,8,,
6b^8[8:1]/5,,,,6,,5,,6h[8:1],,4,,6h[8:1],,3,,6h[8:1],,2,,6h[8:1],,1,,6h[8:1]/8,1,2,3,6/4h[8:1],7,8,1,
2b^8[8:1]/3b,,,3,2,,4,,5b^3[8:1]/6b,,,6,5,,7,,8b/1b,,2,,3/7b,,6,,2b/5,,3,,4b/5b,,2/7,,
2b,1,2,1,4,5,4,5,8b,7,8,7,1,6,2,5,{32}3b,4,5,6,7,8,1,2,3,4,5,6,7,8,1,2,{16}7b-3[8:1]/3b,,,,7,,,,
{8}
1b-3[8:1],3V52[8:2],1,8-4[8:1],,8,1,1w5[8:1],,1,,3/7,2-5[8:1]/8-5[8:1],1,2b/8b,,
8-6[8:1],6V47[8:2],8,1-5[8:1],,1,8,4,3/7,2/6,1v6[8:1],5^3[8:1],1,5,{16}6,7,8,1,
{8}2/5bv3[8:1],3V57[8:2],5,1-5[8:1],,1,8,1-6[8:1],8,1/4-1[8:1],3,4,8w4[8:1],1/7,8,,
{24}
2/6,3,4,5/7,,,,,,4/8,7,6,3/5,,,,,,1/5,2,3,4/6,,,
{8},8-4[8:1]/4,3,2,2^5[8:1],,{24}2b/6b,7,8,1,,,
{8}
8^3[8:1],3^6[8:1],4,5h[8:2],,{24}8-4[8:1],4/7,3/6,2/5,,,4/8,5,6,7h[8:1],,,
{8}
4-8[8:1],2-6[8:1],4,2,8,1/7,,
{8}
1^6[8:1],6^3[8:1],5,4h[8:2],,{24}1,5/2,6/3,7/4,,,5/1,4,3,{12}2,8,1,6,5,7,3,4,2,8,1,7,
{8}
8^3[8:1],3^6[8:1],4,5,,{24}8/4,3/7,2/6,1/5h[8:2],,,1,8,7,6h[8:1],,,8,7,6,5-2[8:1],,,4-7[8:1],,,5-1[8:1],,,4,,,5,,,,,,
{16}
3b,4,3,4,1,8,1,8,5b,6,5,6,4,7,4,7,2b,4,3,6,5b,7,3,4,1b,7,5,8,{24}1b/5b,,,2/6,,,
{16}3b-8[8:1]/7b-4[8:1],,,,,,,,,,4^7[8:1]/8^3[8:1],,,,4/8,,,,8,,1,,2-8[8:1]/6-4[8:1],,,,2/6,,,,,,
2b/6b,,2/6,,5/1,,5/1,,8b/4b,,8/4,,3/7,,3/7,,7b/3b,4/8,1/5,2/6,3/7,4/8,
{24}1/5,4,3,2,1,8,7,6,5,4V28[8:8]/8-4[8:1],,,,,,
{8}8b,,,,,,5,4V68[8:8],,,,,3,,4,,5-1[8:3],,,1V35[8:4],,,6pp1[8:6],,,,,5,4,3,2,2qq7[8:8],,,,,,,6^3[8:3],6,,,,1,,2/8,,
3bV57[8:16]/7b-3[8:16],,,,,,,,,,,,,,,,,,,,,,,,,E
