&title=越打越年轻&叮咚鸡
&artist=7Revive&侠名
&first=-0.35
&des=宝宝肚肚打雷啦
&lv_7=宴
&inote_7=(130){4},
{8}1-3[8:1]/5,3,1-6[8:1]/5,7,1-4[8:1]/5,3,15,,4/8-6[8:1],6,4/8-3[8:1],2,4/8-5[8:1],6,48,,1-7[8:1]/5,7,1-4[8:1]/5,3,1-6[8:1]/5,7,15,,4/8-2[8:1],2,4/8-5[8:1],6,4/8-3[8:1],2,{16}48,5,6,7,
{8}1-5[8:1]/8,1,6-1[8:1],6,4,4,{16}48,37,26,15,{8}4-8[8:1]/8,,2-5[8:1]/4,,2/6<1[8:1],,{16}16,2,3,4,{8}8-4[8:1],8,3-8[8:1],3,5,5,{16}15,26,37,48,{8}1/5-1[8:1],,5/7-4[8:1],,3>8[8:1]/7,,{16}38,7,6,5,
{8}3b/4b-7[8:1],5,14,2,6h[8:1],{16}3h[8:1],1,1,,{8}28,8<5[4:1],1,4h[16:1],2h[16:1],{16}1s5[8:1]qq5[8:1],8-5[8:1],{8}1,1,,7h[8:1],6h[8:1],{16}5,4,5,,3<5[8:1]/8-5[8:1],6,3/5p8[8:1],,{8}38,,2h[8:1],4h[8:1],5h[8:1],{16}6,6,{8}4-8[8:1]/5-1[8:1],1s5[8:1]/8,45,,6h[8:1],7h[8:1],8-4[8:1],{16}2,2,8-5[8:1],,1-4[8:1],1,{8}8,1,6h[8:1],7h[8:1],5h[8:1],3h[8:1],8-5[8:1],{16}5p8[8:1],5,{8}8,,2h[8:1],3h[8:1],{16}4,5,{8}4,1z5[8:1]/8s4[8:1],27,18,,1/7h[8:1],{16}2,8,{8}2h[8:1],5,78,16,2b/5b,,
{16}7-4[8:1],8,7,8,7b,,,,2-5[8:1],1,2,1,2b,,,,7<4[8:1],8,7,8,(260){4}7b,1>1[4:1],,{32}E2,E3,E4,E5,E6,E7,E8,E1,B1,B2,B3,B4,B5,B6,B7,B8,(130){16},,2-5[8:1],1,2,1,2b,,,,7-4[8:1],8,7,8,{8}7b-2[8:1],,4-1[8:1]/7,3,4/8-4[8:1],7,{16}1,2,{8}3,1b/7b,,
5b-2[2:5],5b-8[8:19],5b-2[4:9],5b-8[8:17],5b-2[1:2],5b-8[8:15],5b-2[4:7],5b-8[8:13],{12}5b-2[2:3],5b-8[12:17],,{8}5b-2[12:15],5b-8[24:27],{30}5b-2[1:1],,5b-8[15:14],,,{8}5b-2[6:5],5b-8[24:17],{12}5b-2[12:7],5b-8[2:1],{8},{30}5b-2[24:7],,,,5bw1[8:1],{8},,,,,
4,4,5,5,3b/6b,,,,
4-2[8:1]/8,,4-6[8:1]/8,7,4-2[8:1]/8,1,48,,1h[16:1]/7h[16:1],3h[16:1]/5h[16:1],2h[16:1]/8h[16:1],4h[16:1]/6h[16:1],1-6[8:1]/8-3[8:1],27,18,,1/5-7[8:1],,1/5-3[8:1],2,1/5-7[8:1],8,15,,2h[16:1]/8h[16:1],4h[16:1]/6h[16:1],1h[16:1]/7h[16:1],3h[16:1]/5h[16:1],1-6[8:1]/8-3[8:1],27,18,,
1/5<8[8:1],,1q5[8:1]/5,2,1/5q1[8:1]*>2[8:1],6,5,,8-6[8:1],8>3[8:1],8-4[8:1],8-3[8:1],8-5[8:1]*<5[8:1],8,8,,4>1[8:1]/8,,4/8p4[8:1],7,4p8[8:1]*<7[8:1]/8,3,4,,{16}3,5,3,5,4,6,4,6,{48}2,3,4,5,6,7,8,1,2,3,4,5,6,7,8,1,,,{8},3b/6b,
