&title=LEMON MELON COOKIE
&artist=TAK
&first=0
&des=🍋🍈🍪
&lv_5=13
&inote_5=(180){1},
{8}4h[8:1],,4h[8:1],,4h[8:1],,4h[8:1],,
{8}5hx[8:1],,5hx[8:1],,5h[2:1],,,,
{8}4,,35,,2,4,5,3,2-5[8:1],5,6-3[8:1],6,2,,34,,
{8}5,,64,,7,5,4,6,7-4[8:1],4,3-6[8:1],3,7,,65,,
{8}17,,27,,3,7,2,8,82,,72,,6,2,7,1,
{8}2b-6[8:1],,8bq1[4:1],,2x,1x,,2b-4v5[8:3]/7b-5v4[8:3],
{8},,,,,,,,
{16}5,,6,,7,,5x,6,5x,6,5x,,7,,6,,
{16}4,,3,,2,,4x,3,4x,3,4x,,2,,3,,
{16}5,,6,,6,,5x,7,5x,7,5x,,6,,5,,
{16}4,,3,,3,,4x,2,4x,2,4x,,3,,4,,
{8}5h[8:7],,A7/D7/A6/E7/B6/B7,,,B1/B8/C/B4/B5,,A2/D3/A3/E3/B3/B2,,
{8}4,45,,6,7,8-4[8:1],1,2,,
{16}B1,C,B5,,,,B2/B6,,B8,C,B4,,,,
{8}1xh[16:1]/5xh[8:1],,,1q5[8:1]/5^8[8:1],,,,
{8}8h[8:1]/6h[8:1],,5hx[8:1]/7xh[8:1],,8hbx[8:1]/6hbx[8:1],,
{8}5h[8:1]/7h[8:1],,8hx[8:1]/6xh[8:1],,5hbx[8:1]/7hbx[8:1],,
{8}8h[8:1]/6h[8:1],,5hx[8:1]/7hx[8:1],,
{8}8h[8:1]/6h[8:1],,7hx[8:1]/1hx[8:1],,8hbx[8:1]/6hbx[8:1],,
{8}1h[8:1]/7h[8:1],,8hx[8:1]/6hx[8:1],,1hbx[8:1]/7hbx[8:1],,
{8}8bV64[8:1]/4bV28[8:1],,,,
{8}1h[8:1]/3h[8:1],,4hx[8:1]/2xh[8:1],,1hbx[8:1]/3hbx[8:1],,
{8}4h[8:1]/2h[8:1],,1hx[8:1]/3xh[8:1],,4hbx[8:1]/2hbx[8:1],,
{8}1hbx[8:1]/3hbx[8:1],,2hbx[8:1]/8hbx[8:1],,
{8}1h[8:1]/3h[8:1],,2hx[8:1]/8hx[8:1],,1hbx[8:1]/3hbx[8:1],,
{8}8h[8:1]/2h[8:1],,6h[4:1]/E1,,C,,E6,E5,E4,,
{8}1q5v3[4:3],,,,,,,,
{8}8p4v6[4:3],,,,,,,,
{8}1q4[2:1]*p6[2:1],,,,,,,,
{8}D8/A8/E1/E2/A2/D3/B1f,,,,3v2[8:1]/7v6[8:1],,,,
{8}7x-5[8:1],8,1x^3[8:1],8,7x^5[8:1],8,1x-3[8:1],8,
{8}7x-5[8:1],8,1x^3[8:1],8,7x^5[8:1],8,1x-3[8:1],8,
{8}7x-5[8:1],8,1x-3[8:1],8,7xv4[8:1],8,1x,8,
{8}2b/6b,6h,5h,4h,3h,,21,83,
{8}2x-4[8:1],1,8x^6[8:1],1,2x^4[8:1],1,8x-6[8:1],1,
{8}2x-4[8:1],1,8x^6[8:1],1,2x^4[8:1],1,8x-6[8:1],1,
{8}2x-4[8:1],1,8x-6[8:1],1,2xv5[8:1],1,8x,1,
{8}7-3[8:1]/3,,73,,42,,75,,
{8}1-6[8:1]/8-3[8:1],,18,,7,6^3[8:1],,36,
{8},12,38,47,,2,3^6[8:1],,36,,78,16,,56,4/7,,
{8}5^7[8:1]/2^4[8:1],1,2b/5b,,5^7[8:1]/2^4[8:1],1,2b/5b,,
{8}8/4^1[8:1],,7,6,1/5^8[8:1],,2,3,
{8}4h[4:3]/8V64V28[2:1],,,,,,,,
{8}E1/B1,4bx,E8/B7,2bx,A8/B8,5bx,A7/B7,3bx,
{8}Chf[4:3],,,,,,{32},B7/B2/B6/B3,A7/A2/A6/A3,,,,,,
{8}18,2,4,2,1-5[8:1]/8,,6,7,5,7,1/8-4[8:1],7,1-5[8:1]/8,,18,,
{8}87,6,4,6,7-3[8:1]/8,,8,1b,4,2b,45,7b,56,2,43,6,
{8}81,7,5,7,8-4[8:1]/1,,3,2,4,2,8/1-5[8:1],2,8-4[8:1]/1,,81,,
{8}3h[8:1],,4hx[8:1],,5bhx[8:1],,6bhx[8:1],,
{8}5-1[8:1],,5V74-8[8:3],,,,,,
{8},B3/B4,,B6,B2,B8,B4,,
{8}Ch[4:1],,1xs5[8:3],,,,,,
{8}7x/8x-3[8:1],,6,,3x/7x-4[8:1],,1,,7x/8x^3[8:1],,6,,3x/7x^4[8:1],,1,,
{8}4,3,5,6,5,4,3,,B3,B4,B5,B6,1-4[8:1]/8-5[8:1],,,,
{8}2x/1bx-6b[8:1],,3,,6x/2bx-5b[8:1],,8,,
{8}8h[8:1],,1h[8:1],,8-4[8:1]/2-6[8:1],,8/2,,
{8}2q7[8:1]/6^3[8:1],,,,1x/8xh[2:1],,6,,
{8}4h[2:1],,2,,8,,26,,
{8}5h[4:7]/4h[4:1],,,,4h[4:1],,,,6h[4:1],,,,6h[4:1],,,,
{8}7-3[8:1]/6-2[8:1],7h[64:1]/6h[128:1],,,4hx[8:1],,5hx[8:1],,
{8}6-4[8:1],,,,3-5[8:1],,,,
{8}E7,,B6,,B3,,E3,,5h,,4xh,,3bxh[4:1],,,,
{8}5/7-4[8:1],,,2-5[8:1],,7^2[8:1],,4^7[8:1],,1b,1b,,7-3[8:1]/3-7[8:1],,,,
{8}8h/B5,,8xh/B4,,1bxh[8:1],,8h/B5,,8xh/B4,,1bxh[8:1],,8h/B5,,8xh/B4,,
{8}8h/B5,,8xh/B4,,1bxh[8:1],,8h/B5,,8xh/B4,,1bxh[8:1],,8bV64b[8:1]/4bV28b[8:1],,,,
{8}1h[8:1]/3h[8:1],,4hx[8:1]/2xh[8:1],,1hbx[8:1]/3hbx[8:1],,
{8}4h[8:1]/2h[8:1],,1hx[8:1]/3xh[8:1],,4hbx[8:1]/2hbx[8:1],,
{8}1hbx[8:1]/3hbx[8:1],,2hbx[8:1]/8hbx[8:1],,
{8}1h[8:1]/3h[8:1],,2hx[8:1]/8hx[8:1],,1hbx[8:1]/3hbx[8:1],,
{8}8h[8:1]/2h[8:1],,6h[4:1]/E1,,C,,56,45,34,,
{8}6^3[8:1]/2,,C,,1,B5,B6,,3^6[8:1]/7,,C,,8,B4,B3,,
{8}6^3[8:1]/2,,C,,1,B5,B6,,
{8}D2/A1/E1/E8/A7/D7/B8f,,,Ch[8:1],{32},B7/B2/B6/B3,A7/A2/A6/A3,,{8},,,
{8}2b/3b,,,Ch[8:1],{32},B1/B4/B8/B5,A1/A4/A8/A5,,{8},,3b/7b,
{8},1b/5b,7b/3b,,3v2[8:1]/7v6[8:1],,,,
{8}1h[4:1]/5h[4:1],,,6/3-5[8:1],,3/7-3[8:1],,7/1-7[8:1],
{16},,4,5,6,,,,1,2,3,6,7,8,3,4,
{8}5,8,65,2,45,7,43,2,
{8}3b/6b,2h,1h,8h,7h,,26,48,
{8}8-6[8:1],3,8-2[8:1],2,8-5[8:1],6,8-3[8:1],2,
{8}8^5[8:1],6,8^3[8:1],2,8p4[8:1],6,8q4[8:1],2,
{8}8^5[8:1],6,8^3[8:1],2,8-4[8:1],6,8,2,
{8}3-6[8:1]/6,,36,,57,,24,,
{8}8^3[8:1]/1^6[8:1],,81,,4,7p2[8:1],,27,
{8},87,61,52,,4,2q7[8:1],,27,,21,83,,43,5/2,,
{8}4-2[8:1]/7-5[8:1],8,7b/4b,,4-2[8:1]/7-5[8:1],8,7b/4b,,
{8}1/5^8[8:1],,2,3,8/4^1[8:1],,7,6,
{8}5h[4:3]/1V35V71b[2:1],,,,,,,,
{8}5h[8:1]/4h[8:1],,5h[8:1]/4h[8:1],,5h[8:1]/3h[8:1],,5h[8:1]/3h[8:1],,
{8}5h[8:1]/4h[8:1],,5h[8:1]/4h[8:1],,4h[8:1]/6<3>6[1:1],,4h[8:1],,
{8}4h[4:11],,,,,,,,{8},,B6,,,,B3,,,,B7,,,,B2,,
{8}7-4[8:1]/5-2[8:1],,,,1V35b[8:1]/5V71b[8:1],,,,
{8}81,7,65,7,8-4[8:1]/1,,3,2,43,2,8/1^6[8:1],2,8^3[8:1]/1,,81,,
{8}12,3,5,3,2-6[8:1]/1,,1,8b,65,7b,54,2b,43,7,56,3,
{8}18,2,34,2,1-5[8:1]/8,,6,7,56,7,1/8^3[8:1],7,1^6[8:1]/8,,18,,
{8}6h[8:1],,5hx[8:1],,4bhx[8:1],,3bhx[8:1],,
{8}5<1[8:1]/1>5[8:1],,1xV75[8:3]/5xV31[8:3],,
