&title=はじまりの未来
&artist=40mP×sasakure.UK
&first=0.04
&des=ナナミ×LTCalter
&lv_5=13
&inote_5=(156)
{1},,
{8}4V62[8:4],,,1-7[8:1],,,,,
8<3[8:5],,,1pp3[8:2],,,,,
6V84[8:4],,,3-1[8:1],,,,,
1V35-2[8:4],,,6,6,,8h[8:2],,
{4}E1,E2/6x,E3/6x,E4/6x,A1/7x/B1,A2/7x/B2,A3/7x/B3,A4/8x/B4,
{8}E7/B6/E2/B2,,E8/B7/E3/B3,Ch[8:4],,,,E1f/A1/A8/B1/B8,
,,,,,,2b/7b,,
{16}
1x-5[8:1],,,,8,,7v4[8:1],,,,1,,2^5[8:1],,,,
6V84[8:2],,,,4,,3h[8:2],,,,8,,28,,7,7,
1x-4[8:1],,,,6,,7-3[8:1],,,,3,,2,,1,,
1xh[16:4]/E8,E7,E6,E5,E4,,8xh[16:4]/D2,D3,D4,D5,D6,,7,,17,,
8x-4[8:1],,,,1,,2^5[8:1],,,,8,,7v4[8:1],,,,
3V15[8:2],,,,5,,6h[8:2],,,,1,,71,,2,2,
8bx,,E3,E4,E5,,1x,,E8,E7,E6,,8bx/4x,,E4,E3,E2,,
2bx/6x,,E5,E6,E7,,2x<4[16:5]/8bx,,,,,,,,
{8}8xh[8:2],,,,1h[8:2]/7h[8:2],,,,6h[8:2]/4h[8:2],,,,5h[8:2]/3h[8:2],,,,
2h[8:2]/4h[8:2],,,,1h[8:2]/3h[8:2],,,,8h[8:2]/4h[8:2],,,,6h[8:2]/5h[8:2],,,,
2h[8:2]/4<8[8:4],,,,4h[8:2],,,,2qq5[2:1]/7h[8:2],,,,6h[8:2],,,,
3-8-4[8:3]/7h[8:2],,,,6,,5<3[8:3],,3bx,,,,4,,26,,
7x<4[8:2],8,1,2,3-8[8:1],,5,,7v4[16:3],8,1,2,3^8[16:3],,5,,
7h[8:2],,2h[8:2],,8h[8:2],,4,3V14[8:2]*pp4[8:2],,,,,7xh[8:2],,1x,,
2xV84[8:3],3,4,5,6^1[16:3],,1,,2xV84[8:3],3,4,5,6^3[16:3],,2,,
1h[8:2],,5h[8:2],,3h[8:2],,7w3b[8:4],7,,,,,,,15,,
3/7p4[8:3],,3,,3,,3,17,
8q4[16:3],,7,,6,82,3,17,
5<1[8:3],,4,,3,,2,17,
8-4[16:3],,1,,3,71,6x/2x,5x/3x,
6pp2[8:3],,4,,4,,48,,
2p6[16:3],,3,,3,17,6,82,
8-4[8:1],,8/4,,5q1[8:1]/1q5[8:1],,1/5<3b[8:3],,3bx,,,,8,8,17,,
{16}2b/8b,,7v4[8:1],7,5x,,4,,3,,2,,1v6[8:1],,,,
71,,7v4[8:1],7,5x,,4,,3,,2,,1-5[8:1],,,,
1^4[8:2],,,,4^7b[8:2],,,,7^2[8:2],,,,2p1b[8:3]*p5[8:2],,,,,,,,,,,,6,,,,28,,,,
{8}1^4^1[8:4]/7,,7h[8:1],,6,,6,,5^8^5[8:4]/3,,3h[8:1],,2,,2,,
1pp5[8:4],,7,7,,8,,1<3b[16:8],,,,,{32}E4,E5,E6,,{16},,C,,,,
{8}1v6[8:1],2,3,4,5v2[8:1],6,7,8v3[8:1],,78,6,5h[8:3],,4,3,2,
{8}1v6b[8:1],2,3,4,5v2b[8:1],6,7,8-6[8:1],3-7[8:1],8-2-4-6[8:2],3,8,,1,2,3,
{8}48,7,6,15,2,3,47,6,3q5[8:2],5,3,8h[8:2],,4v7[8:1],3,2/4pp3[8:2],,8,8h[8:2],,2-6[8:1],6V48[8:2],2,8x,,7xqq8[8:2],7x,,2,3h[8:2],,
{8}5,1,28,3,28,7,
{16}4,5,3,6,2hb[8:2],,,,8,1,7,2,6b,3,3,4,2,5,1b-5[8:1],,,,
{16}1,,7-4[8:1],,4-8[8:1],,7/2>8[8:2],,,,2,,,,5hx[8:3],,1,,2,,3,,4h[8:3],,
{24}E4,E3,E2,E1,E8,E7,E6,,,,,,
{16}3-5[8:1],,5-1[8:1],,3,,7-3[8:1],,,,78,,1,,2,,35,,6<4[8:2],5,7,,8h[8:2],,,,,,5x,6x,4x,7x,
{16}3x<6[8:1],,,,23,,1>4[8:1],,,,18,,7,,6,,5-1[8:1],,,,56,,7-3[8:1],,,,78,,1,,2,2,4<7[8:1],,,,,,1-5[8:1],,,,12,,3,,3h[8:3],,5,,6,,5,,46,,
{32}A7,A8,A1,A2,A3,A4,A5,A6,A7f,,,,,,,,
{16}2-5[8:1],,5-1[8:1],,2,,7-3[8:1],,,,78,,1,,2v5[8:1],,,,12,,8-4[8:1],,4-7[8:1],,8,,,,,,
{16}2,,1-5[8:1]/7,,,,12,,3-7[8:1],,,,3pp2[8:2]/2,,1,,8x,,,,,,
{16}6,,6h[8:2],,,,8-4[8:1],,1<6[8:1],,28,,1x,,,,5,,6h[8:3],,,,8,,1,,2-6[8:1],,,,2x/8x-4[8:1],,,,8x/2x-6b[8:1],,,,
{96}2x/8hx[8:3],Cf,,,,,,,,,,,,,,,,,,,,,,,,,,,,,,,,,,,
{16}4,,3,,2h[16:3],,,1,2,,2/8-4[8:1],,7,,86,,5,,6,,7h[16:3],,,8,7,,7/1-5[8:1],,2,,13,,
{16}3,,24,,15,,8,7,1,6,2,,3,,4,,4,5,3,6,2,7,1,8,1,,27,,3,6,4,5,
{8}3,24,1,28,7,68,1,28,3,24,1,28,7,68,
{16}1,2,3,4,5h[16:3],,,6h[16:3],,,7h[8:2],,,,1,,8,,7pp2[8:4]/3pp6[8:4],,,,,,,,,,,,,,,,4b/8b-4b[8:31],,
