&title=インテグラル・ラボラトリ
&artist=irucaice
&first=-0.407
&lv_4=1
&des=mmfc
&inote_4=
(240){4},{1},,,,,,,,,,,,,,,,,,,{4},,,{8},{16}4,
8,{8}4,{16}8,4,{12}8,4,8,4,
E
&lv_5=13+
&des_5=
&inote_5=
(240){4},,,,{1}C,
{4},,,,,,,,,,,,6,
4h[4:1],{8}7,,,6,
{4}8h[4:1],3,{2}1h[4:1],
{8}2/1,8/3b,,4/3,{4}2/5b,{8}7/8,1b/6,
,2/3,{4}5b/1,6h[2:1],3,
{1}1q5[8:3],
7p3[8:3],
{2}4/2,6/8,
{8}1/7,2/8-3[8:1],,B7/B6/E7f,,4b,{4}6b,
{8},,2/8,4,{4}6,{8}3h[8:1],5h[4:1],
,3,2,1,7-5[8:1],8-4[8:1],7,8,
,,{4}7-1[8:1]/3-1[8:1],7/3,{8}6,5-3[8:1]*-7[8:1],
,5,,8,2-4[8:1],1-5[8:1],2,1,
,,{4}6/1,{8}7-4[8:1],1-5[8:1],7,1,
,6h[4:1],,4,7,6,7,5,
{4}8h[4:1],{8}4,8h[4:1],,4,3/7,2/6,
1/5,{16}4x,8x,4x,8x,4x,8x,4x,8x,4x,8x,4x,8x,4x,8x,
{1}4x,
{2}7/1,2,
4/6,7,
3/1,4,
6/8,1,
3/5,6,
8/2,3,
{1}Ch[2:1],
{8}4b,8b-4[8:1],,8b/2b,,E2,E3,E4,
,,{4}7/3,5/1,6-8[8:1]/8V24[4:1],
{8}6/8,,,1h[4:1],,4,3,2,
{4}6/1h[4:1],7,1/8h[4:1],2,
{8}7/5h[8:3],,,6,{2}4h[4:1]/7h[8:3],
{4}3-5[8:1],8,8-4[8:1],1,
1-3[8:1],{8}7x,7xh[4:1],,3-5[8:1],6-8[8:1],3,
{4}6,{8}2,3,,4/8,3/7,2/6,
{4}B7f/E7/B8,B1/E3/B2f,{2}E5f/E6/B5/E4/B4,
{4},3,6/4,7,
{16}2/8h[16:7],,,,,,,1,,,,,{4}5,
{16}1/3h[16:7],,,,,,,6,,,,,{8}2/3,1/8,
{2}6/7,{12}4,5,4,5,4,5,
{8}6x/3x,,,5/4,{4}6/3b,{8}4/5,6b/3,
,5/4,{4}7/2b,{8}4,5,4,5,
8/7,6/2b,,3/4,{4}6b/2,{8}1/8,3/7b,
,,6,7,{4}8/1h[4:1],4,
{1}2/6V83[8:3],
4V27[8:3],
{8}6/7,8/5b,,2/1,{4}3b/8,{8}4/5,6b/3,
,,,,4,2,5-7[8:1],3-1[8:1],
5,3-5[8:1]*-6[8:1],,3,,7,1,5,
{4}6/4,{8}8/2,4/6h[4:1],,3,4,5,
4/6,7,6/4,3,,6,2,8,
{4}1/7,{8}5/3,1/7<4[4:1],,8,1,2,
3,{16},,,,8/2,7/3,{8}6/4,5,6/4,6/4,
7/3,7/3,8/2,2h[4:1]/8h[4:1],,,,,5/6,
7,6/4,7,6/3,7,2/6,7,
6x/1x,8x/5x,4x/7x,6x-1[8:1]/3x-8[8:1],,,,,6/3,
5/4,,7/2h[4:1],,3,4,5,
{4}6h[16:1]/7h[16:1],{8}8/1,3h[16:1]/2h[16:1],,1,6-4[8:1],7-3[8:1],
6,7-1[8:1],,7/1-6[8:1],,,4,3,
{6}2,7/3,5/2,6/3,8/1,2/1,
{2}7/6h[2:1],{8}4h[4:1],,,3>8[4:1],
7,6,5,4,,4h[4:1],1,2,
{4}7/3v8[4:1],{8}3,6h[4:1],,,,5,
{4}1v4[4:1],6/1,7,3/8-6>4-7[1:1],
B1,B3,E5,{16}B3,B2,,,,,,,{8}2,
3,{2}4/6h[4:5],
{4},3,{16},,,,,,,,2,
1,,,{4}7,5/3,4/6,
5/2,3/4,{2}2/6h[4:3],
{4},4,{8},,,,3,
5,2,6,{4}3>8[2:1],E1,
E8,E7,{8}5,2,6,1,
{4}5<8[2:1],E4,B2,E1,
5/2h[2:1],5,5,3/8h[4:1],
3,{8}6,1,{4}6h[2:1],5,
{1}5q1[8:3],
3p7[8:3],
C,
{6},,,,,,4,
{12}5,3h[4:1],,5,,,6,4,,3,
{6}5,{12}6,4h[4:1],,6,,,3,5,,4,
{6}6,{12}5,7,,6,{4}4h[4:1],6h[4:1],
{12},,4,3,2,1,8,7,6,5,,3,
{6}2,{12}7,8,,5,{24},,,,,E2,,,,,{12}5,
{6}6,{12}8,1,,4,,,B3,B4,,,{6}7/1,
3,7,5/3,7,3,
{16}7/1,,,4/2,,,{8}5/6,{2}8/3,
{6}3/1,7,3,5/7,3,7,
{16}3/4,,,5/6,,,{8}8/7,{2}1/2,
{1}5h[1:1],
B2/B3/E3,
{16}4/6xh,3,2,1,8,7,6,5,4/7xh,3,2,1,8,7,6,5,
{1}4/8bxh,
A1/B1/D2/A2/B2/E2f,
{8}E8/B7/A7f,4,,6,B3/B2/E3f,5,3,7,
5/6,2/4-8[8:1],,4,,4,3,2,
{4}1/8-4[8:1],{8}8,6,,4,6/7,8/1,
2/3,{16},,,,3,2,{8}1/7h[8:3],6,6,6,
2h[8:3],4,4,4,,4,6,5,
2b/8b,7/3,8b/2b,3/6,1b/7b,6/2,1b-5b[8:1]/7bv4b[8:1],2/6,
{2}1b/7b,{16}3xh[4:1],2x,1x,8x,7x,6x,5x,4x,
{8}3xh[4:1],1h[4:1],,,,4,6-8[8:1]/2-8[8:1],5/3,
{4}6-4-8[4:1]/2V48[4:1],6/2,{8},7/1,6,5/3,
4,5h[4:1]/7-5[8:1],,7,,4,6,2,
{6}5/3,5/7,5/3,2/4,6/4,4/2,
{8}7h[2:1]/1h[2:1],{16},,,,,,,,,,,,7,6,
{8}5/3,2,6/4,7,,4,8,3,
{4}1,{8}2,2h[4:1],,8h[4:1],,2h[4:1],
7,6h[4:1],1,8h[4:1],,5h[4:1],,3h[4:1],
8,7h[4:1],2,1h[4:1],,5h[4:1],,4h[4:1],
{4}6,6<8[8:1],6/3>1[8:1],3,
{16},,,,1,8,7,6,{8}5,{16}2,1,8,7,6,5,
{4}4,{8}2/6,7,8/4,3,2/6,7,
,2/8,7/3,6/4,{16}5,6,{8}7-3[8:1],{16}1,8,{8}7,
,6,,5,4,{16}3,4,5,6,{8}7,
{16}2,3,4,5,6,7,2,3,4,5,6,7,5,4,3,2,
{4}1,{8}4,7/1,,5/3,4,6/2,
,5,6,7,{16}2,3,4,5,8,7,6,5,
3,2,1,8,7,6,5,4,{12}3,2,1,8,7,6,
8,5,4,3,,,1,7,6,5,,,8,
4,1,5,2,6,3,7,4,8,,,3,
7,5,6,,,3,5,1,3,,,2,
3,4,8z4[8:1],7,6,{16}8b,Cf,
E
