&title=Leaving Leaf
&artist=Taffyz
&first=0
&des=Dororo & Renekton
&lv_5=13+
&inote_5=(88)
{24},,,,,,,,,,,,,,,,,,,,,,,,
,,,,,,,,,,,,,,,,,,,,,,,,
3/E5,,,,,,,,,,,,5/C,,,,,,,,,,,,
7/E1,,,,,,,,,,,,1/C,,,,,,,,,,,,
6/E5,,,,,,,,,,,,4/C,,,,,,,,,,,,
2/E1,,,,,,,,,,,,8>7[4:1]/Ch[4:1],,,,,,,,,,,,
3h[4:1],,,,,,B2/B3,,,,,,5h[4:1],,,,,,B1/B8,,5,,,,
7h[4:1],,,,,,B6/B7,,,,,,4,,5,3,,,5,,4,6,,,
2x/C,,4,3,,5,4h[256:1],,6,5,,7,7x/C,,5,6,,4,5h[256:1],4,6,3,,2,
2x,8,3,7,4,6,1h[256:1],7,2,6,3,5,2xh[24:5]/6xh[24:5],,,,,,E1/6^3[12:1],,,C,,,
E5,,,2,,4,3h[8:1],,,6-3[12:1],,3-5[16:1]/5,,,,,,,,,,1,,1h[24:4],
,,,{24}7^2qq6[8:3],,8,6,,,4h[24:8],,,,,,,,,4-2[16:1],,,3/5-7[16:1],,,
,,,,,,2/8,,,3-7[12:1]/7h[4:1],,,2,,,,,,5pp4[4:1],,6,1h[4:1],,,
,,,,,,2,,2,4,,4,5,,5,7,,7,1w5[12:1],,28,,,,
B1f,,,,,,2V48[6:1]/6,,3,4,,4,2,,,,,,7,,7h[24:10],,,,
8,,,3^5v4^6[4:1],,,6,,,1h[4:1],,,,,,,,2,8,,8,2,,,
6,,6,4,,4,7,,7,5,,8,3,,3,5,,5,2,,2,4,,1,
8h[12:1],,5,6,5,7,4,7,2,8,1,8,1h[12:1],,4,3,4,2,5,2,7,1,8,1,
2xb/6xb,,,8xb/4xb,,,3,,3,7<3[8:1],,7,,,,E1f,,,,,,2,,2h[24:4],,
,,5-8[12:1],,,3-6[12:1]/4,,,,,,8,,8,,,17,,,6,5,,3,
4,,,26,,,4,,4h[8:1],,,5,4,,,5/7^4pp3[3:1],,,24,,,1h[4:1],,,
,,,,,,1,,1,4,,4,5,,5,8,,8,2-6[12:1],,2,6,,6,
A8f/E8/E1,,,,,,1,,2,8,,37,3^5q2[6:1]/7^5p8[6:1],,,,,,37,,,,,,
3^6[12:1]/5,,,7^2[12:1]/1,,,3/4qq5[4:1],,,7pp7[8:1],,,4b,,,,,,,,6,8,,3,
1-5[12:1],,2,4,,4,1,,6,6,,7,8-4[12:1],,7,5,,5,8,2,2,6,,6,
4,4,5,3,4,3,5,5,4,6,5,6,4,4,5,2,4,2,5,5,4,7,5,7,
1bw5[4:3],,,,,,,,,,,,,,,,,,,,,,,,
,,,,,,,,,,,,{32}D4,B4,B6,D7,,,,,{24},,,,,,
,,,,,,{32}A3,B3,C,B7,A7,,,,{24},,,,,,,,,,,,
{32}D3,B2,B8,D8,,,,,,,,,,,,,1xb-5b[12:1],,,,,,,,,,,,,,,,
{24}4xqq5[4:1],,,,,,B7/B8,,,,,,6<3[6:1],,,,,,4,,4h[6:1],,,,
5xpp4[4:1],,,,,,B2/B1,,,,,,2^7[8:1],,,,,,7,,,,,,
6v3-5[8:1],,,,,,2xv7-1[8:1],,2x,,,,6-3[12:1],,,,,8x,8x-2-7-3-6-4[8:4],,,1x,,,
2xbh[2:1],,,,,,,,,,,,A4f,,,,,,2,,2,6,,6,
{64}8x,1x,2x,3x,4x,5x,6x,7x,8x,1x,2x,3x,4x,5x,6x,7x,{24}8xbq4v7[6:1],,6,2,,2xh[24:7],8b,,,,,,8^5[12:1],,,3p7[12:1]/4,,,
{24}8qq4[4:1],,,3,,,8x,,,4x,,2,2xhb[24:5],,,,,5,4,5,4,6,3,6,
2^5[12:1],,,17,,,2,,,6,6,5,7^4[12:1],,,28,,,3q8[12:1],,,1,,6,
6h[24:5],,,,,1,6,4,8,3,5,1,7V53[8:1],,,28,,3x,3x,,1xh[6:1],,,,
4-1[12:1],,3,5,,5,4,,8,8,3,7,5-8[12:1],,6,4,,4,5,,1,1,,,
2b/6b,,3,5,,1b<3[8:1]/7bV53[8:1],,,2,6,,1b/7b,,,,{96}A2,D2,A1,D1,A8,D8,A7,D7,A6,D6,A5,D5,{24}A4f,,2x,6,,6,
8-4[12:1],,7,5,,5,8,,3,3,,2,1-5[12:1],,2,4,,4,1,7,7,3,,3,
5,5,4,6,5,7,4,4,5,3,4,2,5,5,4,7,6,8,4,4,5,2,3,1,
6^4[16:1],,,7,,,E5,,,,,,6^4[16:1],,,7,,,C,,,,,,
6^4[16:1],,,7,,,E1,,,,,,B2,,,C,,,B6,,,,,,
3^5[16:1],,,2,,,E5,,,,,,3^5[16:1],,,2,,,C,,,,,,
3^5[16:1],,,2,,,E1,,,,,,A7,,,C,,,A3,,,,,,
(85)
{24}
6h[2:1],,,E4,,,E5,,,,,,2h[2:1],,,E7,,,E6,,,,,,
(80)
{24}
8h[2:1],,,E2,,,E3,,,,,,Ch[4:1],,,,,,E1/B8/B1,,,,,,
(72)
{24}
6,,7,,8,,2,,3,,4,,7,,8,,1,,3,,4,,5,,
(60)
{96}
D8,A8,D1,A1,D2,,,,,,,,,,,,,,,,,,,,
,,,,,,,,,,,,,,,,,,,,,,,,
{64}E3,B2,B1,B8,B7,E7,,,,,,,,,,,
{4},
E
