&title=マツヨイナイトバグ
&artist=COOL&CREATE
&first=0
&des=DANNIS&SEI clock_count=4
&lv_5=14
&inote_5=(190)
{1},
{16}1,,,,1,,,8,{8}1,{16}1/8,2/7,3b/6b,,,,
{16}7/4,,6,,5/3,,2,,3/5,,6,5,6-1[8:1],,7/4,,6/5-2[8:1],,,,5/6,,,,
{8}7/8,1/6,2/5,4<7[8:1]/3,,2,3-8[8:1],4-7[8:1],3,4>1[8:1],,4/6,,
{16}8,8,8,,7/1,,8-4[8:1],,2,2,8b,,,,
{16}2/5,,3,,4/6,,7,,6/4,,3,4,3>8[8:1],,2/5,,3/4<7[8:1],,,,4/3,,,,
{8}2/1,8/3,7-4[8:1]/4-8[8:1],5/6,4b/7b,,,3/4,1b/5b,,,3b/7b<4[8:1],,
{16}3,2,1,,1,,3b-8[8:1]/7b-4[8:1],,,,3/7,,,,
{8}2h[8:1]/6,,3h[8:1]/5,,4h[8:1]/6,,3h[8:1],7,2<6[8:2],,6<2[8:2],,4h[8:1],,5h[8:1],,6,,
{8}7/5-2[8:1],7/5,7/5,,8,8h[8:1],3qq4[8:4],,3/7h[8:1],,6h[8:1],,5,5,
{8}4<7[8:2]/6,,3,,4h[8:2],,8,8-4[8:1],,5,5-2[8:2],,2-7[8:2],,7-4[8:2],,4-1[8:2],,1-6[8:2],,6-3[8:2],,5,5h[8:2],,2b,,
{16}7b/1h[8:1],6b,5b,,{8}2,3-8[8:1]/4-7[8:1],5,,,
{8}6h[8:1]/4,,5h[8:1]/3,,6h[8:1],4,7>4[8:2],,4>7[8:2],,5h[8:1],,4h[8:1],,3,,
{8}2/4-7[8:1],2/4,2/4,,1,1h[8:1]/6V47[8:2],,2,2,,3/8,1/2,3/8-5[8:1],1/2,8,,
{8}2/4h[8:1],,4h[8:1]/6,,4/7,{16}6,5,{8}6,7/4,7<4[8:2]/4,,{16}4,,,3,,,2,,
{16}1b/7b,,6,5,6,,6,,5b/3b,,2,1,2,,2,,
{8}1b/7b,1b/7b,5b/6b,5b/6b,8b/2b,8b/2b,4b/3b,4b/3b,
{16}8b/1b,,2,1,2,,3,4,3,,2,1,2,,3,1,3,,4,5,4,,2,4,2-5[8:1],,,,1b/2b,,,,
{32}4,,,,8,7,6,5,3,,,,8,7,6,5,2,,,,8,7,6,5,1,,,,8,7,6,5,{8}1-5[8:1],5-1[8:1],1w5[8:1],,,,
{8}3b-5[8:1]/7b-5[8:1],2b/8b,3b/7b,,
{16}7b,,6,5,6,,7,8,7,,6,8,6,,5,4,5,,7,5,7-4[8:1],,,,8b/7b,,,,
{32}5h[8:1],,,,8,1,2,3,5h[8:1],,,,1,8,7,6,4h[8:1],,,,8,1,2,3,5h[8:1],,,,8,7,6,5,
{8}1<6[8:1],1,1w5[8:1],,1,,,,
{16}1b/7b,,2,1,3,,3,6,4,,3,8,2,,1,7,2,,2,5,3,,3,8,4-7[8:1],,,,4b/2b,,,,
{32}5/4,,,,1,2,3,4,5/6,,,,8,7,6,5,4/3,,,,1,2,3,4,5/6,,,,8,7,6,5,
{8}3/4,2,1/8,6/5,2/8-4[8:1],,1,1,
{16}2b/6b,,7,8,6,,5,4,6,,7,1,8,,8,,1b/2b,,3,4,2,,1,8,2,,3,5,4,,4,,
{16}2b/5b,,3,4,3,,4/5,,1b/6b,,7,8,6,1,7,8,6b/1,,1b,2b,3b,,8b,7b,
{32}6b/2b,3,4,5,6,7,8,1,6,5,4,3,2,1,8,7,
{8}6h[8:1]/4h[8:1],,,3h[8:1]/5h[8:1],,,
{8}2h[8:1]/4V62[8:6],,1h[8:2],,,,3h[8:2],,,,
{8}1b/5b,{16}3,4,2<7[8:1],,5,,4/2,,4,5,6,,2/8>3[8:1],,,,4,,4-8[8:1],,8,,4,,7,6,5b/1b,,,,
{16}3,5,3,5,4,6,4,6,5-2[8:1],7,5,7,5,,8h[8:2],,,,1-5[8:1],,8-4[8:1],,1,,8,,3,2,1/8,7,6,5,
{8}2/4,{16}1,8,2>5[8:1],,3,,8/2,,8,7,6,,2<7[8:1]/8,,,,4,,5-1[8:1],,1,,5,,2,3,4b/8b,,,,
{16}4/6b,,8/2b,,4b-7[8:1]/3-8[8:1],,1b/6,,3b/4,,,,2/5b,,7/4b,,,,
{8}4/5b,1/8b,4/5b,1-4[8:1]/8b-5[8:1],,,,
{8}8/3,{16}6,5,7>2[8:1],,4,,5/7,,5,4,3,,7/1<6[8:1],,,,5,,5-1[8:1],,1,,5,,2,3,4b/8b,,,,
{16}6,4,6,4,5,3,5,3,4-7[8:1],2,4,2,4,,1h[8:2],,,,8-4[8:1],,1-5[8:1],,8,,1,,6,7,8/1,2,3,4,
{8}7/5,{16}8,1,7<4[8:1],,6,,1/7,,1,2,3,,7>2[8:1]/1,,,,5,,4-8[8:1],,8,,4,,7,6,5b/1b,,,,
{8}3/5-1[8:1],5,5/2-6[8:1],2,2/7-3[8:1],7,7/1-5[8:1],1,1b/8h[8:4],,,,
{16}4,8,4,8,5-1[8:1],1,5,1,
{8}5b<4[8:10],,,,,,,,,,,,,,4/5,,
{16}3/6,,2,5,3,6,4h[8:1],,7,5,6,4,5,3,4h[8:1],,{8}3h[8:2],1b,4h[8:2],8b,5h[8:1],
{16}7b,8b,7b,,8,1,
{8}2/6h[8:3],,,{16}5,5,1h[16:3],,,3h[16:3],,,4h[8:1],,8h[16:3],,,6h[16:3],,,5h[8:1],,
{16}7h[16:3],,,6h[16:3],,,5,,
{8}5h[8:3]/4,3,2,1,1h[8:3]/5,6,7,8z4[8:3],1s5[8:2],,,,,,3/6,,
{8}4b<3[8:4]/5h[8:3],,,,,,{16}5,6,7,8,2,1,3,8,2,1,3,8,2,3,4,5,
{8}6-2[8:1]/7,,6h[8:1],,{16}8b,8b,8b-4[8:1],,,,{8}2-6[8:1],1,8,
{8}7-5[8:1],8-4[8:1],7-3[8:1],8-2[8:1],7,8,7,,
{8}6b<1[8:1],6,5,5,4>1[8:1],4,5,6,7b-4[8:1],7,1-5[8:1],1,6<1[8:1],6,3,4,
{16}5b,6,4,7,3,8,2,1,3b,4,2,5,1w5[8:4],6,8,7,,,,,,,,,,,,,,,,,
{16}3,4,5,6,3,4,5,6,{32}4,3,2,1,8,7,6,5,{8}4/8-4[8:1],,
{8}8b/4b,{16}3,3,5-1[8:1],,6,,5/4,,4,3,2,,6/8-3[8:1],,,,6-1[8:1],,5-2[8:1],,6,,5,,8,7,6b/4b,,,,
{16}4,7,4,7,2,5,2,5,4,7,4-1[8:1],7,3,6,4,,,,8-4[8:1],7,6-2[8:1],,8,,6,,3,3,
{16}1-5[8:1],8,7,6,
{8}1,{16}7,7,4>1[8:1],,3,,4/8,,8,7,6,,4/2-5[8:1],,,,7-4[8:1],,8-3[8:1],,7,,8,,5,6,7b/1b,,,,
{16}5b/3b,,6b/7b,,1b-6[8:1]/2b-5[8:1],,4b/7b,,2b/1b,,,,3b/8b,,6b/1b,,,,
{8}4b/5b,1b/8b,4b/5b,2/7h[4:1],,{32}2b,3,4,5,6,7,8,1,{8}2/6-2[8:1],,
{16}6/4-8[8:1],,3,,4/5,,5,6,7,,3/1-6[8:1],,,,3-8[8:1],,4-7[8:1],,3,,4,,1,2,3b/5b,,,,
{16}5,2,5,2,7,4,7,4,5,2,5-8[8:1],2,6,3,5,,,,1-5[8:1],2,3-7[8:1],,1,,3,,6,6,
{16}8-4[8:1],1,2,3,
{8}8,{16}2,2,5<8[8:1],,6,,5/1,,1,2,3,,5/7-4[8:1],,,,2-5[8:1],,1-6[8:1],,2,,1,,4,3,2b/8b,,,,
{16}1/8,7,6,5,8,1,2,3,6,7,8,1,{32}4-8[8:4],5,6,7,8,1,2,3,{8}4b,,,,7,,6,,
{32}5h[8:14]/1b,2,3,4,,6,7,8,1,2,3,4,,6,7,8,1,2,3,4,,6,7,8,1,2,3,4,,6,7,8,
{32}1,2,3,4,,6,7,8,1,2,3,4,,6,7,8,1,2,3,4,,6,7,8,1-4[8:1],,,,,,,,
{8}1,7,6-1[8:1],5-2[8:1],6,5<8[8:1],,5/3,,
{16}1,1,1,,2/8,,1-5[8:1],,7,7,1b,,,,
{16}7/3,,2,1,2,,3/4,,2/5,,6,5,6<1[8:1],,7/4,,6/5>2[8:1],,,,5/6,,,,
{8}7/8,1/6,2-5[8:1]/5-1[8:1],4/3,5b/2b,,,6/5,8b-4[8:1]/4b,,8,2b>5[8:1],,
{16}6,7,8,,8/4,,6b-1[8:1]/2b-5[8:1],,,,6q8[8:6]/2q4[8:6],,,,,,,,,,,,,,,,,,,,,
{16},2b/6b,,8bv5[16:1]/4bv1[16:1],8b/4b,,8b/4b,,,,,,,,,,
E
