&title=I Wanna
&artist=静香(CV 長谷川育美)
&first=-0.282
&des=833099
&lv_5=14
&inote_5=(200)
,,,,{8}7>3[4:3]/5h[8:1],,5h[8:1],,5h[8:1],,5h[8:1],,,5,5,2,5,8,B5/E5,,
3pp7[4:3]/1h[8:1],,1h[8:1],,1h[8:1],,1h[8:1],,,1,1,6,1,4,B1/E1,,
4/5h[8:1],,6/5h[8:1],,7/5h[8:1],,8/5h[8:1],,,2,2,4,7,5,B5/E5,,
6x/5x,7x/8x,2,2,34,7/8<5b[8:1],7,1b,,
{16}6,5,6,,4,2,4,,6,5,{8}6b,,
75,,{16}6-8-3[4:1],,8,,3-7[4:1],,,4,,,4,,,,{8}8/2-6[8:1],,3,3>8[8:1],8,7,,
64,,{16}8-3<4[4:1],,3,,4-7[4:1],,,5,,,5,,,,3h[4:1]/1h[4:1],,,,,,
2,3,4,5,3,4,5,6,3x,4x,4,5,
{8},,{16}8h[16:3],,,7h[16:3],,,6h[4:1],,,,{8}5h[8:3],,7,8h[8:2],4,4,
{16},8x,7xh[4:1],,,,3,,62,,51,,,48,,,5b/1b,,
2,4,2,4,3,5,3,5,4,6,4,6,4,5,3,6,
{4}2,2,2,2,2,2,2,2,2/5x<8[4:1],2,2,2/8xp4[4:1],
{8}2,,2,,2,,2,,2/6x-4[4:1],,2,,2,,2,,7/2x-4[4:1],,7,,7,,
7,6,5h[1:1],,1,,2,,3,4,4h[4:1],,6,,
{16}6,,3,5,4,,,,
{8}6b-2b[8:1],7,6,,73,46,5,,2pp1[4:1],5,5,,,,6,,
3-7b[8:1],2,3,,26,5,42,,7qq8[4:1],4,4,,,,3,,
1-4[8:1],8,1-7<6[8:1],2,1,,4qq8[8:5],4,,,5-7[8:1],6,5,,
,,35,4,2,56,,4x/7,,3x/8,
{16}2,1,2,1,3b,,7,8,7,8,6b,,{8},,
3,2,1,8,{16}6,7,6,,{8}5,4,{16}2,3,2,,{8}6,7,8-4-6[4:1],1,1,1,
7,8,1,2,{16}4,3,4,,{8}5,6,{16}8,7,8,,{8}4,3,2-6-4[4:1],1,1,1,
3,2,1,8,{16}6,7,6,,{8}5,4,{16}2,3,2,,{8}6,7,8,,51,8b,37,6b,15,4b,7/3b,
{16}2x-4[8:1],8x,2b,1,2b,,,,
5b/7b,,,7b/1b,,,{8}6b/2bh[2:1],,,,5,,{32}7b/3,8x,1x,,,,,,3/7-3[8:1],6x,5x,,{16},2h[16:3],,,,,
{8}1,1b,{32}1b/4,8x,7x,,,,,,4/1-5[8:1],5x,6x,,{16},8h[16:3],,,,,
{8},,8pp8qq8b[2:1],,A2/E3,,A3/B3,,
2-6b[8:1],,1-5b[8:1]/2,,8b>5[4:1]/1b,,7b/8b,,,,
3<6[4:1],,6-2[4:1],,2<7[4:1],,7<4[4:1],,4>8[4:1],,,,
6,6,8b-4[8:1]/7b-4[8:1],4,,,1b-5[8:1]/2b-5[8:1],5,,,
{16}8bx,7,6,5,2,3,4,5,
1,8,7,6,3,4,5,6,
8bx,1,2,3,8,1,2,3,
4,3,2,1,5,6,7,8,
3bx,2,1,8,5,6,7,8,
2,3,4,5,1,8,7,6,
3bx,4,5,6,8,1,2,3,
8,7,6,5,7,6,5,4,
8bx,7,8,7,1,6,1,6,
8,7,8,7,1,6,1,6,
8bx,7,6,5,2,3,4,5,
1,8,7,6,3,4,5,6,
8,1,2,3,8,1,2,3,
4,3,2,1,5,6,7,8,
3,2,1,8,5,6,7,8,
2,3,4,5,1,8,7,6,
3,4,5,6,8,1,2,3,8,7,6,5,7,6,5,4,
8,,1,,7,,6,,8,7,8,7,1,6,1,6,{1}2h[4:3]/5h[2:1],
{8}75,,{16}6-8-3[4:1],,8,,3-7[4:1],,,4,,,4,,,,{8}8/2-6[8:1],,3b,3b>8[8:1],8,7,,
64,,{16}8-3<4[4:1],,3,,4-7[4:1],,,5,,,5,,,,3h[4:1]/1h[4:1],,,,,,
2,3,4,5,3,4,5,6,3x,4x,4,5,
{8},,{16}1h[16:3],,,2h[16:3],,,3h[4:1],,,,{8}4h[8:3],,2,
{16}7,6,5,4,6,5,4,3,
{16}7xh[4:1],,,,3,,62,,51,,,48,,,51,,
2b,4,2,4,3b,5,3,5,4,6,4,6,4,5,3,6,
{8},,2-6-4-1[1:1],,,,,7,,7,7,,,B5,B4,,
6,,3-7-5-2[1:1],,,,,8,,8,8,,,B6,B5,
Ch[8:13],B1,B2,B3,,B4,,,
B5,E6,B6,B7,,B8,,4q5[2:3],5<4[8:11],
{1},,{4}2V46[4:1],8,8<3[4:1],2,1-4[4:1],6,6-8-5[4:1],3,,
1h[8:1]/2h[8:1],2h[8:1]/3h[8:1],3h[8:1]/4h[8:1],4-1[8:1]/5-8[8:1],
{8},,,,,7x,7p4[2:1],,3,,3,,,7,7s3b[2:1],,2,,2,,
1x-4[8:1],1x,8x-5[8:1],8x,7x-4[8:1],7x,3x-8[8:1],3x,7,7b,
{16},,6,2,6,,5,3,5,,4,4,4,,{8},
3,2,1,8,{16}6,7,6,,{8}5,4,{16}2,3,2,,{8}6,7,8-4-6[4:1],1,1,1,
7,8,1,2,{16}4,3,4,,{8}5,6,{16}8,7,8,,{8}4,3,2-6-4[4:1],1,1,1,
3,2,1,8,{16}6,7,6,,{8}5,4,{16}2,3,2,,{8}6,7,8,,51,8b,37,6b,15,4b,7/3b,
{16}2x-4[8:1],8x,2b,1,2b,,,,
5b/7b,,,7b/1b,,,6b/2b,,,,,,,,,,2bh[8:1]/C,,,6h[8:1]/C,,,{8}3h[2:1]/Cf,,,,
5,,{32}7b/3,8x,1x,,,,,,3/7-3b[8:1],6x,5x,,{16},2h[16:3],,,,,
{8}1,1b,{32}1b/4,8x,7x,,,,,,4/1-5b[8:1],5x,6x,,{16},8h[16:3],,,,,
{8},,8pp8qq8[2:1]b,,A2/E3,,A3/B3,,
2-6b[8:1],,1-5b[8:1]/2,,8b>5[4:1]/1b,,7b/8b,,,,
3<6[4:1],,6-2[4:1],,2<7[4:1],,7<4[4:1],,4>8[4:1],,,,
6,6,8b-4[8:1]/7b-4[8:1],4,,,1b-5[8:1]/2b-5[8:1],5,,,
{16}8bx,7,6,5,2,3,4,5,
1,8,7,6,3,4,5,6,
8bx,1,2,3,8,1,2,3,
4,3,2,1,5,6,7,8,
3bx,2,1,8,5,6,7,8,
2,3,4,5,1,8,7,6,
3bx,4,5,6,8,1,2,3,
8,7,6,5,7,6,5,4,
8bx,7,8,7,1,6,1,6,
8,7,8,7,1,6,1,6,
8bx,7,6,5,2,3,4,5,
1,8,7,6,3,4,5,6,
8,1,2,3,8,1,2,3,
4,3,2,1,5,6,7,8,
3,2,1,8,5,6,7,8,
2,3,4,5,1,8,7,6,
3,4,5,6,8,1,2,3,8,7,6,5,7,6,5,4,
8,,1,,7,,6,,8,7,8,7,1,6,1,6,{1}2h[1:1]/5h[2:1],
