&title=聖者の行進
&artist=キタニタツヤ
&first=0.15
&des=老吴
&lv_5=14
&inote_5=(158)
{1},
{8}3h/4h,,3h/4h,,5h,,4h/5h,,
{8},4h/5h,4h/5h,,7h,6h,5h/6h,,
{8}2h/4h,,2h/4h,,3h,,3h/5h,,
{8},4h/6h,4h/6h,,8xh,7h,5h/7h,,
{8}1h/6h,,1h/6h,,8h,,3h/7h,,
{8},3h/7h,3h/7h,,1h,8h,4h/7h,,
{8}1h/5h,,1h/5h,,8h,,2h/6h,,
{8}37,,37,,48,48,{16}84,7,6,5,
{4}4h[4:1],2h[4:1],8v3[8:1]*v5[8:1],,
{4}6h[4:1],8h[4:1],4-8b[8:1],2h[4:1],
{4}1h[4:1],3h[4:1],5v6[8:1]*v3[8:1],,
{4}7h[4:1],1h[4:1],2-6[8:1],4xh[4:1],
{4}5<8[8:1],8>3[8:1],3,{16}1h,4h,1h,4h,
{4}3-7[8:1],6<1[8:1],5-1[8:1],{16}8,,8,7,
{4}6>3[8:1],1-4[8:1],{16}5,6,7,8,3,2,1,8,
{4}6-1[8:1],5h[4:1],{8}8,17,17,17,
{8}2-4[8:1],,5,6,5-1[8:1]/8-6[8:1],,58,,
{8}2/4-8[8:1],,34,,5-1[8:1],8,57,6,
{8}5-7[8:1],,1,2,4-2[8:1]/8-4[8:1],,48,,
{8}1-5[8:1],,15,,6-8[8:1],4,36,2,
{8}7-5[8:1],,4,3,4-8[8:1]/1-3[8:1],,41,,
{8}7/5-1[8:1],,65,,4-8[8:1],1,42,3,
{8}4-2[8:1],,8,7,5-7[8:1]/1-5[8:1],,51,,
{8}8-4[8:1],,84,,15,26,37,48,
{4}1x>1>3<5<7>1[2:7],,,,
{4},,,C,
{1}C,
{1},
{4}2q5[2:1]/4,5,6,7,
{4}8p5[2:1]/4,3,2,1,
{16}2,4,3,4,1,5,4,5,8,6,5,6,1,7,5,7,
{16}2,8,3,7,2,8,4,6,{8}2h[8:1],4h[8:1],6h[8:1],8h[8:1],
{32}4b-8b[8:1],3b/7b,2b/6b,1b/5b,8b-6b[8:1],,,,{8}4,,5b-1[8:1]*-2[8:1],,,,
{8}8,17,2-5[8:1]/6-1[8:1],,2b/6>8[4:1],,8,,
{8}7-5[8:1]*-3[8:1],,7,,1b-6[8:1]*-5[8:1],,,,
{8}3,24,1q5[8:1]/5q1[8:1],,5b/1>8[4:1],,,,
{8}1b-5-7[16:3],,17,,8b-4[8:1]*-3[8:1],,,,
{8}5,46,3-8[8:1]/7-4[8:1],,3b/7>5[4:1],,5,,
{8}6-8[8:1],,1,,3bv1b[8:1]*-8[8:1],,,,
{8}7,26,37,{16},1,1,,28,,1-5b[8:1],,,,
{8}1b/7,7,8b-4[8:1],8,38,3,1b-5[8:1],1,
{8}16,6,8b<5[8:1],8,2/8-4[8:1],3,1b-7b[8:1]/8,2,
{8}1V35b[16:3]/6,6,1b-7b[8:1]/8,8,1V35b[16:3]/6,6,1b<3b[4:1]/8,8,
{8}1/6,,8b-6[8:1],,2-4[8:1],1,8b-4b[8:1],7,
{8}3-6-4[16:3],2,1b/3b,8,7-2-8[16:3],6,5b/7b,4,
{8}3V51[16:3],2,1b/3b,8,7-4-8[16:3],6,5b/7b,2,
{8}3-1[8:1],1,8b-4[8:1]/3,6,5-7[8:1]/8,7,1b-5[8:1]/5,3,
{8}14,2,34,17,56,28,3-7b[8:1]/5,17,
{4}3b/5-1[8:1],1-6[8:1],6-2[8:1],2-5[8:1],
{4}5-8[8:1],8-4[8:1],4-7[8:1],1,
{8}2-4[8:1],3,1-5[8:1],8,7-4[8:1]/1,6,8-4[8:1]/7,1,
{8}2-6[8:1],3,1-5[8:1]/2,8,7-2[8:1],6,8-4[8:1]/7,,
{4}8b/4-8[8:1],8-3[8:1],3-7[8:1],7-4[8:1],
{4}4-1[8:1],1-5[8:1],5-2[8:1],2,
{8}1<6[8:1],6<1[8:1],1>4[8:1],4qq4b[4:1],5,6,7,8,
{8}15,15,37,37,{24}1/5b,2,3,4/6b,,,4/7b,3,2,1/8b,,,
{8}8,8,8,4,4,4,8,8,8,4,4,4,62,62,62,62,
