&title=DIST SQUAD
&artist=DJ SHARPNEL
&first=0
&des=體力爆炸のMisakaGu
&des_5=體力爆炸のMisakaGu
&lv_5=14+
&inote_5=
(200){4},{8},,,,,,3,
3,4,6,6,5,{16}3x,4x,{8}3x,
6,6,{16}4x,5x,{8}4x,3,3,{16}3h,4h,3h,4h,
{8}3h,6,5,3,3,4,{16}6x,5x,{8}6x,
3,3,{16}5x,4x,{8}5x,6,6,{16}6h,5h,6h,5h,
{1}7v2q7[4:3],
{8}3,3,{16}3,5x,4x,5x,{8}3,6,{16}4xh,4xh,4xh,4xh,
{8}4xh,5,5,4,6,6,{4}3,
{1}7h[4:3]/4h[4:3],
{4}6/5,{16}5,4,{8}7,{16},,3,4,{8}2,2/1,
{1}1h[4:3]/8h[4:3],
{8}7/2,1,4,{16}3,5,4,6,4,7,4,8-6p4[16:11],4,8,
{1}3h[4:3],
{4}5/4,{16}4,5,{8}2,{16},,6,5,{8}7,7/8,
{2}8h[4:7]/1h[4:1],2h[8:3],
{8},3h[8:3],,,,,{4}C,
{8}5/4,5/4,7/1,6,4/3,5/2,5/2,1,
7/8,8/7,4/2,6,8/1,8/1,5/4,6/2,
7,8/1,2/4,7/6,5/3,1/8,2,6/4,
5/3,7/2,{16}4b,5b,4b,5b,4b,5b,{8}3bxh[8:3],,,,7/2,
6,4/3,8/1,2,6/4,6/4,
7/5,8/1,2,4/5,7/6,8/1,4/2,6,
7/4,8/3,5/4,7/5,3,2/5,1,7/8,
{1}3h[1:1]/5h[1:1],
{8},6/2,5/4,7/1,6,4/3,5/2,4/1,
4/1,6/8,5/4,4/2,6,8/1,8/1,5/4,
6/2,7,8/1,2/4,7/6,5/3,1/8,2,
6/4,7/2,{16}1b,8b,1b,8b,1b,8b,{8}2bxh[8:3],,,,7/4,
1,3/5,6/4,8/1,2,4/5,
6,7/1,4/3,6/5,8/1,2/3,5,2/7,
8/1,5/4,2,3/5,8/6,8/1,4/2,6,
7/4,Ch[8:7],,,,,,,{4}3h[8:1],
3h[8:1],3h[8:1],3h[8:1]/4h[8:1],
5h[8:1]/4h[8:1],6h[8:1],6h[8:1],6h[8:1]/5h[8:1],
{16}5,6,5,7,5,6,5,7,5,6,5,7,5,6,5,7,
{8}5b,{16}8,1,8,2,8,1,8,2,8,1,8,2,8,1,
{8}8b,{16}3,4,2,4,3,4,2,4,3,4,2,4,3,4,
{8}2b,{16}5,4,6,3,5,4,6,3,5,4,6,3,5,4,
{4}6b-2[8:1],6b/1b-5[8:1],1b/8b-4[8:1],{8}8b/3b-7[8:1],3b,
{4}3b/5b-1[8:1],5b/8b-3[8:1],8b/6b-2[8:1],{8}6b/4b<7[8:1],4b,
{4}4b/1b-5[8:1],1b/2b-6[8:1],2b/8b-4[8:1],{8}8b/5b>2[8:1],5b,
{4}5b/7b-4[8:1],7b/1b-5[8:1],1b/8b-4[8:1],{8}8b/3b<6[8:1],3b,
{4}3b/8b-5[8:1],1b/8bv3[8:1],7b/8b-6[8:1],{8}8b/4b>1[8:1],4b,
{4}5b/4bv7[8:1],2b/4b-1[8:1],6b/4b-6[8:1],{8}2b/4bw8[8:1],4bx,
{1}4b,
{8},,,,E6,E5,{4}E4,
{1}2h[4:3]/5h[4:3],
{4}3/4,{16}4,5,{8}2,{16},,6,5,{8}7,7/8,
{1}8h[4:3]/1h[4:3],
{8}2/7,8,5,{16}6,4,5,3,5,2,5,1-3q5[16:11],5,1,
{1}6h[4:3],
{4}4/5,{16}5,4,{8}7,{16},,3,4,{8}2,2/1,
{1}8h[4:3]/1h[4:3],
{16},B8/B7/B6/B5/Cf,,,,,{8}B1/B2/B3/B4/Cf,{16},,,E8/A7/E7/B7f,,,,,{4}E2/A2/E3/B2f,
E6/E5/A5/B5f,{16},B4/B3/A4/E4f,{32},,,,,,,B8/B7/B6/B5/B4/B3/B2/B1/Cf,,,,,,,,,{8}B7/B6/E7f,
{32},,,,,B2/B3/E3f,,,,,,,,,{16}B5/B4/E5f,,,,E3f,
{32},B2/E2/D2/B3/E4/D4,,,,,{16}C,,,,E8/D8/A7/B6/E7/B5/B4/B3/E3/A2/D2/E2/B1/B8/E5f,,,,Cf,,,,,{1}7b<3q7[2:1],
{8}6/2,5/4,7/1,6,4/3,5/2,5/2,1,
7/8,8/7,4/2,6,8/1,8/1,5/4,6/2,
7,8/1,2/4,7/6,5/3,1/8,2,6/4,
5/3,7/2,3,7/5,4/2,8/1,7/6,5/3,
2/1,4/3,7/5,8/1,8/1,5/4,6/2,7,
8/1,2/4,7/6,5/3,1/8,2,6/4,7/2,
7/2,7/2,6,4/3,8/1,2,6/4,7/3,
{4}7-3[8:1],7/1-5[8:1],1/6-3[8:1],6,
{8}2/4,1/8,7,5/4,2/3,1/8,5/7,3,
2/5,1/6,4/5,2/4,6,7/4,8,2/1,
5/2,6/3,7/1,6,4/3,5/2,4/1,4/1,
6/8,5/4,4/2,6,8/1,8/1,5/4,6/2,
7,8/1,2/4,7/6,5/3,1/8,2,6/4,
7/2,5,4/3,7/1,6/5,2/8,3,5/4,
7b/6b,8b/1b,1b/2b,3b/4b,5b/6b,7b/8b,5b/6b,3b/4b,
{4}1b/2b-6[8:1],2b/1b-5[8:1],1b/8b-4[8:1],8b/7b-3[8:1],
7b/5b-1[8:1],5bpp5[4:1]*qq5[4:1],,A5f,
E
