&title=Undying Macula
&artist=Ashrount
&first=0.4899998
&lv_5=14 +
&des_5= RoxySuki
&inote_5=
(189){4},{8},,,,,,,,,,,,
,,{4}3/7-3[2:1],
,,5,
{8},,5,4,3<6[4:1],,,8,
,,{4}7h[4:1],6h[4:1],5h[4:1],
4qq7[4:3],,,7>4[2:1],
{8},,4q1[4:1],5,{4}6,7,
7p4[2:1]/2p4[2:1],7/2,,,5-1[8:1],
{8}5/2,3<6[8:1],,3/8,{4}1-4[8:1],
1/7,{8}6,7,{4}8>3[8:1],{8}8/4,5-1[8:1],
,5/7,{4}6-3[8:1],6v1[8:1],6,
7h[4:3],,,B4,
{8},,1,1,{32}1/8,2,3,4,,,,,,,,,7/8,6,5,4,
,,,,,,,,{4}2-6[8:1],1-5[8:1],8-4[8:1],
{1}7-5>3-1-4-7b[2:5],
,,{16}3x,
6,4,5,3x,6,3x,6,4,5,3x,6,3x,6,4,5,
3x,6,4,5,{4}3x>7-1-3[4:5],{2}3bx,
{16},,,,,,,,,,,,,,,,6x,
3,5,4,6x,3,6x,3,5,4,6x,3,6x,3,5,4,
6x,3,5,4,{4}6x<2-8-6[4:5],{2}6bx,
{16},,,,,,,,,,,,,,,,2x,
4,3,4,2x,4,2x,4,2x,4,3,4,2x,4,3,4,
2x-5[8:1],4,3,4,{4}2bx,{16}7x,5,6,5,7x,5,7x,5,
7x,5,6,5,7x,5,6,5,7x-4[8:1],5,6,5,{4}7bx,
{8}1/3,2,2,8/6,7,7,3/4,2,
5/6,7,{16}2-6[8:1],8,1,7,{2}2b,
{8},,8,1,{4}2/7-4[8:1],7/2qq6[2:1],
2b/5h[4:3],{16},,,,,,,,7,5,8,5,
1,5,2,5,{8}3-8[16:1],4,3,{16}6,5,{8}7,7,
2,1,{4}8/3-8[8:1],3/7-4[8:1],7/2<3[4:1],
2,{48}D2,A1,D1,A8,D8,A7,D7,A6,D6,A5,D5,A4,{4}D4/1w5[8:1],1,
7/3,{16}4,6,3,5,{8}1-3[8:1],8,7,6-8[8:1],
5,4,3-5[8:1],2,1,8,{4}7pp3[2:1],
7b/4h[4:3],{16},,,,,,,,2,4,1,4,
8,4,7,4,{8}6-1[16:1],5,6,{16}3,4,{8}2,2,
7,8,{4}1/6-1[8:1],6/2-5[8:1],2/7,
{32}8bx/3h[32:3],7,{16}6,{32},,7bx/2h[32:3],6,{8}5,{32}6bx/1,5,{16}4,{4}8w4[8:1],8,
6/2,{16}5,3,6,4,{8}7-5[8:1],8,1,2-8[8:1],
3,4,{16}5,6,7,8,1,2,3,4,{32}5s1[16:3],6,7,8,1,2,3,4,
{8}5/Cf,,,3/7,{4}3/7,{8}2>5[8:1],1,
{24}2/8x,7,{12}6,{24},,{8}1,1,8<5[8:1],1,{24}8/2x,3,{6}4,
{8}1,1,8>3[8:1],7,{24}8/6x,5,{12}4,,{4}5-8[8:1]*-2[8:1],
{8}5b,,,3/7,{4}7/3,{8}6-1[8:1],5,
{24}6/4x,3,{12}2,{24},,{8}5,5,4-1[8:1],5,{24}4/6x,7,{6}8,
{8}5,5,4-7[8:1],3,{24}4/2x,1,{12}8,,{4}8-5[8:1]*-3[8:1],
{8}8b,,,3/5,{4}5/3,{16}4,4,{8}7-4[8:1],
3,7,{24}3x,2,1,8,{48},,,,{16}5,5,{8}1-6[8:1],6,1,
{24}7x,8,1,2,{48},,,,{16}5,5,{8}1-6[8:1],4,1,{24}4x,3,2,1,,,{1}7p6-4>8<6[8:9],
{8},,,,E3,E7,B4,B5,
,E2/B2,{4}E8/B7,E3/E7,C,
{32}1/8,2,3,4,,,,,{8}7,{32}7/8,6,5,4,,,,,{8}3,{16}3,4,3,2,
{8}3,1,8>3[8:1],7,{4}8/6-1[8:1],{8}6/4,4,
,8/2,{16}7,3,6,4,{8}5,4,3-7[8:1],2,
{4}3/1>4[8:1],{8}1/8,8,,4,6,{16}6,5,
{8}7/4,C,2/5,C,{32}1bx/6h[32:3],2,{16}3,{32},,2bx/7h[8:1],3,{8}4,{32}8/3bx,4,{16}5,
{4}8,{24}4,5,3,4,,,{8}6/2,1/7,{4}8w4[8:1],
8b,{8}2,{32}2/1,3,4,5,,,,,{8}6,{16}6,5,6,7,
{8}6,8,1<6[8:1],2,{4}1/3-8[8:1],{8}3/5,5,
,1/7,{16}2,6,3,5,{8}4,5,6,7,
8/2,1,1,4/6,5,5,8/7,6,
1/2,3,{16}6,4,5,3,{2}8h[4:3],
{16},,,,E4,E5,E6,E7,{12}E8,E1,E2,E3,{24},{8}E4,
E5,E6,{4}E7,{2}Ch[16:1],
,6/2-6[2:1],
{4},4,{8},,4,5,
6>3[4:1],,,1,,,{4}2h[4:1],
3h[4:1],4h[4:1],{2}5pp2[4:3],
{8}2,2,{4}2<5[2:1],3,{8}5p8[4:1],4,
{4}3,2,2q5[2:1]/7q5[2:1],2/7,
,,4-8[8:1],{8}4/7,6>3[8:1],
,6/1,{4}8-5[8:1],8/2,{8}3,2,
{4}1<6[8:1],{8}1/5,4-8[8:1],,4/2,{4}3-6[8:1],
3v8[8:1],3,{2}2h[4:3],
{4},B5,{8},,8,8,
{32}8,7/1,6/2,5/3,{8}4,{32},,,,2,1/3,8/4,7/5,{4}6,7-3[8:1],
7/8-4[8:1],8/1-5[8:1],{2}1/2-4-8[4:3],
{4},8V26[4:3],,,6V84[4:3],
,,4V62[4:3],
,,8<5[8:3],8,
3,4>1[8:3],4,7,
{16}8h[16:9],,,1,,,{8}2,{16},3,,,4h[16:9],,,5,
,,{8}6,{16},7,,,{8}3b,4,3,4,
3,4,{84}2b,,,,,,,,5,{16},{64},{448},{16}4,{32},5,,,4,,,5,,,{16}4,{32},5,{96},,,,,,{12}1b,
6,5,6,5,6,5,6,5,{48}8b,,,6,,,{16}7,6,
7,6,7,6,7>7>8>1>2>3<4<5<6<7[2:3],6,7,6,{2}7,
{4},,,,C,
,,4/6,
{8},3/7,,,{4}2/8,{8}1>4[8:1],8/7,
{4}1,5/6,7/8,1/2,
4/3,{8}8<7-5[8:1],1,8/2<1-7[8:1],3,{4}2/4-7[8:1]*-6[8:1],
4-2[8:1]*-1[8:1],4,8/6,{8}5<8[8:1],4/3,
{4}5,1/2,3/4,5/6,
8/7,{8}4>3-1[8:1],5,4/6>5-3[8:1],7,{4}6/8-3[8:1]*-2[8:1],
8-6[8:1]*-5[8:1],8,4/2,{8}5/3-7[8:1],7V13[16:3],
{4}3,6<1[8:1],6>3[8:1],6,
2/8,{8}1/7-3[8:1],3-6[8:1],{4}7,2>5[8:1],
2<7[8:1],2,6/4,{8}3/5q1[8:1],1q6[16:3],
{4}5,2,1,{8}8/7,8/1,
1/2,3/4,4/5,5/6,{24}7,8,7,8,{96},,,,,,,,{32}1b,E2,B2,B3,{8}E4,
{32}6b,E7,B7,B8,{8}E1,{32}2b,E3,B3,B4,{8}E5,8x-6[8:1],{16}1,2,{8}3/8-4[8:1],3,
{16}8x/3x,2,{8}1,6x/1x-3[8:1],{16}6,7,{8}8/1-5[8:1],8,{16}1x/8x,7,{8}6,
3x/8x<6[8:1],{16}3,2,{8}1/8-4[8:1],1,{16}1x/8x,2,{8}3,2x/5x,2/5,
{32}3x-8[8:1],4,{16}3,,,{4}3x/4x,{8}1x/6x-4[8:1],{16}1,2,{8}3/6-8[8:1],3,
{16}6x/3x,2,{8}1,6x/2x-4[8:1],{16}6,7,{8}8/2-8[8:1],8,{16}8x/2x,7,{8}6,
4x/7x-1[8:1],{16}4,3,{8}2/7-5[8:1],2,{16}2x/7x,3,{8}4,{4}6x-1[8:1]/3x-8[8:1],
3x/6x,{16}2x,7,3,6,{2}4/5h[2:3],
{4},3,2,1,
8h[1:1],,,4,
3h[32:15],7h[32:7],{32}4bxh/8xp2[1:1],5/1bh,2/6bh,7/3bh,8bh/4p6b[8:7],1/5bh,{16}6/2bh,{1},{4},{1}C,
{2},8<2>8[4:21],
{4},E2,,,E3,
,,E4,
,,{2}E5,
{4},E6,,,E7,
,,C,
,1,{2}1>7<1[4:21],
{4},E8,,,E7,
,,E6,
,,{2}E5,
{4},E4,,,{1}E3,
E
