&title=The Last Chance
&artist=LizNoir
&first=0
&des=Tane
&lv_5=12+
&inote_5=(154){1},,,
{8}6h[4:15]/Ch[4:7],,,,
,,,,
{8},,,,
,,,,
{8}8^3[4:6],,,,
,,,,
{8},,,,
,,,,
{8}18,18,,Ch[4:1]/B3/B6,
,,,18,
{8},18,7,1-6[8:1]/6,
,4,4,,
{8}45,4h[4:2]/5,,2,
,7,,18,
{8},18,18,27,
,27,18,,
{8}38,,7,C/2,
,1,,1^4[8:3]/8,
{8},,7,6,
,,5,3/6h[4:6],
{8},,{32}E1,B1,B2,E3,{8},{32}E7,B6,B5,E5,{8},
{32}E1,B1,B2,E3,{8},
{32}E7,B6,B5,E5,{8},,,
1b,1b,1b,1b,
{8}5v4[8:1],5,3,3,
2^4[8:1],2,5,5,
{8}4v5[8:1],4,6,6,
6^8[8:1],6,4,4,
{8}8-4[8:1],8,1,2,
3,3,5,5,
{8}36,36,27,18,
18,27,36,36,
{8}8-4[8:1],8,1,2,
6^3[8:1],6,2,1h[4:2],
{8},8,7,8,
,5,5,4/8h[4:1],
{8},,,2h[4:1]/5,
,,,2-7[8:1],
{8},8,8,2-4[8:1]/7-5[8:1],
,,,,
{8}1-5[8:1],1,8,7,
2v4[8:1],2,6,6,
{8}1-4[8:1]/8-5[8:1],18,,,
4h[8:7],6,7,8,
{8}1,8,7,6,
,,27,4^2[8:1]/Ch[4:2],
{8},,,1b,
,,,,
{8}18,18,C/E7/E3,,
36,36,C/E7/E3,,
{8}6h[8:3]/8,1,2,3,
3h[8:2],4,5,6h[4:1]/1h[4:1],
{8},,,Ch[4:1],
,,,3h[4:1]/8h[8:1],
{8},8,7,6-3[8:1],
,,,,
{8}Ch[4:5],,B2/B1,,
B7/B8,,B2/B3/B7/B6,,
{8}B3/B4/B5/B6,,,,
B1/B8/B4/B5,,C,3>6[8:3]/5,
{8},,,,
,,,1w5[4:1]*w5[4:1]/5,
{8},,,,
,38,4,38,
{8},8^5[8:1],1,2,
3-5[8:1],3,6,6,
{8},56,45,34,
5,4,5,7h[4:3],
{8},5,,2h[4:1],
,,,2^4[8:1]/7^5[8:1],
{8},,,6/1h[4:2],
,5,,4h[4:1],
{16},,1,,
2,4,,7,
5,,3,4,
,6,5,5,
{8}7v4[8:1],,,,
38,,4x-1b[8:1]/5x-8b[8:1],,
{32}E5,B4/B5,B3/B6/Cf,B2/B7/B8/B1,
D2/D8/A1/A8/D1,,,,{8},,
5/4-1[8:1],,,,
{8}4h[8:1]/5h[8:1],,45,2,
45,7,45,2,
{8}2v4>6[8:3]/5h[8:2],,,,
5,,4q8[8:1]/5-8[8:1],,
{8}54,,34,,
34,67,34,,
{8}45,3,45,7,
45,6,45,2,
{8}45,C/B2/B7,45,27,
3h[4:1]/6h[4:1],,,,
{8}4^1pp4[8:4]/5^8[8:1],,,,
,,,,
{16}45,,,46,
,,3^1pp4b[8:3]/5h[4:1],,
,,,,
,,,,
{8}7bh[8:6],,{32}A4,E4/B4,C/B3/B2/E3,B1/E2,
{8},
2h[8:2],,,,
{8}4,25,4,25,
4,25,4,25,
{8}45,26,Ch[4:2]/7<3[8:2],7,
,,,,
{8}18,18,27,27,
36,18,C/B2/B7/B3/B6,,
{8}18,3,18,6,
18,2,18,7,
{8}37,25,37,25,
4h[4:2]/8,,7>4[8:7],,
{8},,,,
,,,,
{8},,7qq4<8[8:4],,
,,,,
{8}3h[4:4],,,,
,,8^5[4:2],8,
{8},,,,
{16}2,3,4,,
7,6,5,,
{8}1-5[8:1]/6-1[8:1],,,,
,,,,
