&title=Caldwell 99
&artist=BlackY
&first=0.25
&des=STLCN
&des_5=STLCN
&lv_5=14
&inote_5=(142){4},{8},,,,,,,,,,2h[8:3],
,,6,
4h[8:3],,,7,6h[16:5],4,{16}3,3,,6>2[8:1],
,2<6[8:1],,,,,,,4,4,,5h[8:1],,3,,2h[8:1],
,7h[16:7],,2h[16:5],{48},,,,,,,,,,,,,6/3,{24}4h[8:1]/5h[3:1],{48},,,,,3,2,1h[3:1],,,,,,,,6,7,8h[8:1],,,,,,,7/2,
6/3,{8}5/4,{16},,,,5,2h[8:1],,4,{8}3h[8:1],{16}5,4h[8:1],
,6,{8}5,{4}5h[8:1]/7h[8:1],{16}5,7h[8:1],,5,{8}6h[8:1],{16}4,5h[8:1],
,3,{8}4,{4}4h[8:1]/2h[8:1],{16}4,2h[8:1],,1,{8}2h[8:1],{16}8,1h[8:1],
,7,{8}8,{4}8h[8:1]/6h[8:1],{16}8,6h[8:1],,5,{8}6h[8:1],{16}4,5h[8:1],
,4,5,3,6,2,{8}7,{16}8/1h[16:3],,,4,{8}4,3/5,
{16}2/8h[16:3],,,5,{8}5,6/4,{16}5/3h[16:3],,,8,{8}8,7/1,
{16}4/6h[16:3],,,1,{8}1,8/3h[16:3],{16}6,6,5,7,4,5,3,3h[8:1],
,7,8,6,1,8,2,2h[8:1],,6,4,7,3,3,8,8,
2,1,3,8,4,7,5,6,{4}6b,3>8[8:1]/7<4[8:1],
7-2[8:1]/3-6[8:1],7/3,1V36[16:3],7V52[16:3],
1V37[16:3],6V84[16:3],{8},,5<8[8:1]*>2[8:1],5,
{4}5,{8}1>5[16:3]/6v3[8:1],1/6,{4}1/6<1[8:1],4pp8[8:3],
2v3[8:1],2,{16}2,2,4,3,5,4,6,5h[8:1],
,7,5,6,4,5,3,4h[8:1],,3,5,4,6,3,7,2,
8h[16:3],,,1h[8:1],,2,3,4,{4}5>2[4:1],2<6[4:1],
{8}6p2[4:1]*q2[4:1],,,,,8h[16:1],,6h[16:1],
,4h[16:1],,2h[16:1],{32}7b/1,2,3,4,5,6,7,8,1,2,3,4,5,6,7,8,
1,2,3,4,5,6,7,8,{12}1h[12:1],2,3,{4}4>5[4:1],7,
{3}1h[4:1],{12}8/2,7/3,{4}6/4z8[4:1],8z4[4:1],
{12},,,,7,6,{2}5-8[4:1]*qq5[4:1],
{8},,8/5,3<7[16:3]/2>7[16:3],{32},,,,,,,,,,,,2,3,4,5,
{4},{16},{64},{192},{12}5,6/4,{2}3h[2:1]/7v1[8:1],
{16}8,,,8,,,{8}8h[8:3],{16}6,,,4,,,{8}2,
{16}8h[4:1],,,3,,,{8}5,{4}5h[4:1],{24}6,7,8,1,2,3,
4,5,6,7,8,1,{4}2b/4,{16}3b>7[8:1],,,4,{4}3/5h[4:1],
{16},6>3[32:3],,8,{4}6,{16}2h[8:5],,,3b,,,{8}5b,
,7b-5[8:1],,7b,{16}4,6,3,7,2,8,1,8,
2,7,3,6,4,5,4,5,4,3,4,2,4,1,4,8,
4,7,4,6,4,5,3,6,7/2-5[16:1],,,2/7-4[16:1],,,{8}7/1-5[16:1],
{16},1/8-4[16:1],,,{4}8/2,{16}2/7-4[16:1],,,7/2-5[16:1],,,{8}2/8-4[16:1],
{16},8/1-5[16:1],,,{4}1/7,{8}6h[16:7],{16}5,4,3,2,1,8,
1,2,3,4,5,6,7,8/1,{32},,,,1,8,{16}1,{12}7,6,5,
4,3,2,1b/8b,{48},,,,,,,,{16}3h[8:1],,,4,,,{8}6/4,
{16}6h[8:1],,,5,,,{8}3/5,{16}3h[8:1],,,4,,,{8}4/6h[4:1],
{16},,3,5,,1/2,,6,8h[16:3],,,6h[8:1],,5h[8:1],,3,
5,7,4,6,3,5h[8:1],,2h[8:1],,4,{8}3,{12}7/5,6/4,5/3,
{16}4/2h[16:3],,,1,,,{8}7/8,{16}4/6h[16:3],,,7,,,{8}1/8,
{16}5/3h[16:3],,,2,,,{8}8/1,{16}6/7h[8:1],,,5/4,,,{8}2h[8:1]/3-8[8:1],
,3,{16},5,,,{4}4/6h[8:3],7>2[8:1],
{8},4h[16:3],{16},2-5[16:1],,,2/8-4[16:1],,,8/1-6[16:1],,,{8}1/7-3[16:1],
{24},,,2,1,8,{4}7b,{16}8,2h[8:1],,4,{8}3h[8:1],{16}5,4h[8:1],
,5,4,6,{8}3h[8:1],5h[8:1],{16}2,7h[8:1],,5,{8}6h[8:1],{16}4,5h[8:1],
,4,5,4,{8}6h[8:1],4h[8:1],{16}7,2h[8:1],,5,{8}3h[8:1],{16}6,4h[8:1],
,5,4,6,3,5,{8}5,{16}2,7h[8:1],,5,{8}6h[8:1],{16}4,5h[8:1],
,4,5,4,6,5,{8}5,{16}6h[8:1]/4h[8:1],,,6/4,,8/7,,,4h[8:1]/2h[8:1],
,,4/2h[8:1],,8b,,8b,{8}3,{16}5,5,{8}6,{16}4,4,
{8}3,{16}5,5,{8}6,{16}4,4,{8}3h[16:1]/6h[16:1],6h[16:1]/3h[16:1],6h[16:1]/3h[16:1],6h[16:1]/3h[16:1],
{16}2,2,7,7,3,6,3,6,{8}5b/4b,{16}4/5,3/6,2/7,1/8,{8}7h[16:3]/2h[16:3],
{32},,,,7/2,3/6,{16}4/5,{32},,5/4,6/3,7/2,8/1,,,{16}8/7h[16:3],,,5,,,{8}4/6,
{16}1/2h[16:3],,,4,,,{8}3/5h[16:3],{16},,3,4v1[32:3],,2h[8:1],,4,
,2,8,2,7,2,6,2,5/3h[16:3],,,1,,,{8}2/8,
{16}4/6h[16:3],,,8,,,{8}7/1h[16:3],{16},,7,6,{24}5,6,7,8,1,2,
{16}3h[8:1],,,5,,,{8}6/4,3h[8:1],{16}5,4,5,3h[8:1],,6h[8:1],
,4,5,3,5,4,5,3h[8:1],,4,3,5h[8:1],,4,6,1,
8b-4[16:1],,,8/2b-5[16:1],,,{8}6b-1[16:1],{16}6b,,,3,8,2,7,1,
6,8,5,8,{4}4h[4:1],{16}6-2[16:1],,,6/8-4[16:1],,,{8}3,
{16}2b-6[16:1],,,7b-4[16:1],,,{8}5b-1[16:1],{32},,,,,,,,8-5[32:3]/2-7[32:3],7/3,{16}4/6,,,{8}8/2,
{16}4,2h[8:1],,5,{8}3h[4:1],{16},,6,5,7,7h[8:1],,2,
4,3,5,5,8,7,1,1,{8}2/8h[8:1],3,5/4,6,
8/7,{16}6,8h[8:1],,7,{8}1h[4:1],{16},,5,5,4,6,,2/4,
,7/5,,4/2h[8:1],,7,5,5,{8}8h[8:1],{16}1,1,2,2,3,3,
4,4,5,5,6,6,7,7,8,8,1,8,2,8,3,8,
{24}4,7,4,7,{48},{16}6h[8:1],,2,4,1,3b-7[16:1],,,3/1b-5[16:1],,,{8}8b-3[16:1],
{16},6b-1[16:1],,,{4}4b-8[16:1],{8},2h[4:1],,4,
,5,,3h[4:1],,6h[4:1],,3,
,4/5,{16},1/8,,,5-1[32:3]/4-8[32:3],,,3b/6b,
E
